[Tâm Lý] Wet Woman in the Wind 2016 720p HDTV AAC2.0 H.264 ~ Cô Gái Ướt Trong Gió

Thảo luận trong 'WEB-DL, HDTV' bắt đầu bởi thien my, 18/10/17.

  1. thien my

    thien my Well-Known Member

    Tham gia ngày:
    7/12/09
    Bài viết:
    7,810
    Đã được cảm ơn:
    30,052
    Giới tính:
    Nam
    Nghề nghiệp:
    Ăn Không Ngồi rồi
    Nơi ở:
    Hàng xẻng
    Wet Woman in the Wind 2016 720p HDTV AAC2.0 H.264
    Cô Gái Ướt Trong Gió

    [​IMG]




    Mã:
    General
    Unique ID                   : 184848405232185501922656328416990768341 (0x8B1082047B617D448B596DA02D02ACD5)
    Complete name               : D:\Downloads\Phim\Wet Woman in the Wind 2016 720p h264 [風に濡れた女]  [湿濡的女人].mkv
    Format                      : Matroska
    Format version              : Version 2
    File size                   : 3.75 GiB
    Duration                    : 1 h 17 min
    Overall bit rate            : 6 882 kb/s
    Encoded date                : UTC 2017-01-11 19:12:19
    Writing application         : mkvmerge v8.5.2 ('Crosses') 32bit
    
    
    Writing library             : libebml v1.3.3 + libmatroska v1.4.4
    Video
    ID                          : 1
    Format                      : AVC
    Format/Info                 : Advanced Video Codec
    Format profile              : [email protected]
    Format settings, CABAC      : Yes
    Format settings, ReFrames   : 4 frames
    Codec ID                    : V_MPEG4/ISO/AVC
    Duration                    : 1 h 17 min
    Bit rate                    : 6 691 kb/s
    Width                       : 1 440 pixels
    Height                      : 780 pixels
    Display aspect ratio        : 1.85:1
    Frame rate mode             : Constant
    Frame rate                  : 23.976 (24000/1001) FPS
    Color space                 : YUV
    Chroma subsampling          : 4:2:0
    Bit depth                   : 8 bits
    Scan type                   : Progressive
    Bits/(Pixel*Frame)          : 0.248
    Stream size                 : 3.64 GiB (97%)
    Writing library             : x264 core 148 r2638 7599210
    Encoding settings           : cabac=1 / ref=3 / deblock=1:0:0 / analyse=0x3:0x133 / me=hex / subme=7 / psy=1 / psy_rd=1.00:0.15 / mixed_ref=1 / me_range=16 / chroma_me=1 / trellis=1 / 8x8dct=1 / cqm=0 / deadzone=21,11 / fast_pskip=1 / chroma_qp_offset=-3 / threads=6 / lookahead_threads=1 / sliced_threads=0 / nr=0 / decimate=1 / interlaced=0 / bluray_compat=0 / constrained_intra=0 / bframes=3 / b_pyramid=2 / b_adapt=1 / b_bias=0 / direct=1 / weightb=1 / open_gop=0 / weightp=2 / keyint=345 / keyint_min=23 / scenecut=40 / intra_refresh=0 / rc_lookahead=40 / rc=crf / mbtree=1 / crf=18.0 / qcomp=0.60 / qpmin=0 / qpmax=69 / qpstep=5 / vbv_maxrate=62500 / vbv_bufsize=78125 / crf_max=0.0 / nal_hrd=none / filler=0 / ip_ratio=1.40 / aq=1:0.70
    Default                     : Yes
    Forced                      : No
    Audio
    ID                          : 2
    Format                      : AAC
    Format/Info                 : Advanced Audio Codec
    Format profile              : LC
    Codec ID                    : A_AAC
    Duration                    : 1 h 17 min
    Bit rate                    : 192 kb/s
    Channel(s)                  : 2 channels
    Channel positions           : Front: L R
    Sampling rate               : 48.0 kHz
    Frame rate                  : 46.875 FPS (1024 spf)
    Compression mode            : Lossy
    Stream size                 : 105 MiB (3%)
    Language                    : Japanese
    Default                     : Yes
    Forced                      : No
    










    [​IMG]











     
    siromua and chiendu like this.
  2. Đang tải...


  3. dunvip

    dunvip Member

    Tham gia ngày:
    22/6/15
    Bài viết:
    90
    Đã được cảm ơn:
    5
    Không có tóm lược phim hả bác
     

Chia sẻ trang này