[Tâm Lý xã Hội| Tình Cảm] Bộ sưu tập các phim Tình Cảm Dã sử, Cổ trang Trung Quốc, Nhật Bản ( DVD5-D

Thảo luận trong 'mHD, SD' bắt đầu bởi 5ti, 18/7/14.

  1. 5ti

    5ti Uploader

    Tham gia ngày:
    7/7/08
    Bài viết:
    1,480
    Đã được cảm ơn:
    12,159
    có phim The Lovers Guide 1991 nữa , nhưng cùa Mỹ Bạn à
     
    tieubao64 cảm ơn bài này.
  2. 5ti

    5ti Uploader

    Tham gia ngày:
    7/7/08
    Bài viết:
    1,480
    Đã được cảm ơn:
    12,159
  3. kodisharingonfacebook

    kodisharingonfacebook Well-Known Member

    Tham gia ngày:
    18/8/19
    Bài viết:
    976
    Đã được cảm ơn:
    35,476
    Nghề nghiệp:
    bán hành
    Nơi ở:
    Chợ Lớn
    BST của bác chuẩn khủng thiệt đó ! Đánh dấu down dần
     
    nguyencoba2012 and 5ti like this.
  4. Hua Van Leo

    Hua Van Leo Well-Known Member

    Tham gia ngày:
    11/10/09
    Bài viết:
    543
    Đã được cảm ơn:
    414
    Có ai có bộ The Butterfly Lovers – TV Series (Lương Sơn Bá Chúc Anh Đài) này ko?
    Nhấn nút Cảm ơn (dưới chân bài) để thấy link!
     
    Chỉnh sửa cuối: 16/6/20
  5. 5ti

    5ti Uploader

    Tham gia ngày:
    7/7/08
    Bài viết:
    1,480
    Đã được cảm ơn:
    12,159
    Mấy cái ảnh nhạy cảm kia bạn cho ẩn hoặc xóa đi nhé. Kéo không BQT xóa cả topic này đấy.
     
    Chỉnh sửa cuối: 7/6/20
    thanhloanct and Hua Van Leo like this.
  6. ggnn159151

    ggnn159151 New Member

    Tham gia ngày:
    7/6/20
    Bài viết:
    3
    Đã được cảm ơn:
    6
    Anyone has The Tangles Love ? cut two file thanks
    [​IMG]
     
  7. nos

    nos Member

    Tham gia ngày:
    24/11/09
    Bài viết:
    61
    Đã được cảm ơn:
    6
    reup giùm phim này nha bác : Rigodon (2012) NTSC DVD5

    Thanks
     
    thanhloanct cảm ơn bài này.
  8. HDtime

    HDtime New Member

    Tham gia ngày:
    26/2/20
    Bài viết:
    1
    Đã được cảm ơn:
    2
    Can someone reupload this? :)
     
    LAN1956 and dhlong66 like this.
  9. tonthatduc

    tonthatduc Well-Known Member

    Tham gia ngày:
    19/7/12
    Bài viết:
    241
    Đã được cảm ơn:
    1,664
    Sex et perestroïka 1990
    Tình dục và cải tổ-Phụ đề Việt

    [​IMG]
    [​IMG]

    [​IMG]
    [​IMG]
    [​IMG]
    [​IMG]
    [​IMG]

    Không có
    [​IMG]
    [​IMG]

    Link tải phim
    Nhấn nút Cảm ơn (dưới chân bài) để thấy link!

    [​IMG]
    Link tải phim
    Nhấn nút Cảm ơn (dưới chân bài) để thấy link!

     
  10. 5ti

    5ti Uploader

    Tham gia ngày:
    7/7/08
    Bài viết:
    1,480
    Đã được cảm ơn:
    12,159
    LAN1956 and tonthatduc like this.
  11. dtsinhbig

    dtsinhbig Member

    Tham gia ngày:
    18/6/10
    Bài viết:
    47
    Đã được cảm ơn:
    74
    lean8780, tonthatduc and 5ti like this.
  12. 5ti

    5ti Uploader

    Tham gia ngày:
    7/7/08
    Bài viết:
    1,480
    Đã được cảm ơn:
    12,159
    bwhd, lean8780, LAN1956 and 6 others like this.
  13. Rober Thang

    Rober Thang New Member

    Tham gia ngày:
    12/4/18
    Bài viết:
    6
    Đã được cảm ơn:
    1
    Giới tính:
    Nam
    Bác 5Ti có tuyển tập các phim của Shu Qi (Thư Kỳ) không bác, mình tìm mãi mà chỉ có 1-2 phim thôi. Nếu có bác up seri của Thư Kỳ nhé, cám ơn bác nhiều , chúc bác nhiều sức khoẻ!
     
    5ti cảm ơn bài này.
  14. KunXiMuoi

    KunXiMuoi New Member

    Tham gia ngày:
    20/7/20
    Bài viết:
    3
    Đã được cảm ơn:
    1
    Giới tính:
    Nam
    có Series Zodiac Agent 69 ko bác ơi..
     
    5ti cảm ơn bài này.
  15. BuiAn

    BuiAn Lãng Khách

    Tham gia ngày:
    30/10/12
    Bài viết:
    8,206
    Đã được cảm ơn:
    14,027
    Thư Kỳ chỉ có chừng đó phim thôi :D tầm 5 phim có cởi đồ.
     
  16. shmilygone

    shmilygone New Member

    Tham gia ngày:
    9/4/12
    Bài viết:
    7
    Đã được cảm ơn:
    2
    LAN1956 cảm ơn bài này.
  17. robotaisen

    robotaisen Member

    Tham gia ngày:
    1/7/09
    Bài viết:
    134
    Đã được cảm ơn:
    11
  18. robotaisen

    robotaisen Member

    Tham gia ngày:
    1/7/09
    Bài viết:
    134
    Đã được cảm ơn:
    11
  19. tonthatduc

    tonthatduc Well-Known Member

    Tham gia ngày:
    19/7/12
    Bài viết:
    241
    Đã được cảm ơn:
    1,664
    Adventures.Into.the.Woods.A.Sexy.Musical.2012
    Emmanuelle ở xứ sở thần tiên-Phụ đề Việt

    [​IMG]
    [​IMG]
    [​IMG]
    General
    Complete name : Adventures.Into.the.Woods.A.Sexy.Musical.2012.mp4
    Format : MPEG-4
    Format profile : Base Media
    Codec ID : isom (isom/iso2/avc1/mp41)
    File size : 801 MiB
    Duration : 1 h 38 min
    Overall bit rate : 1 135 kb/s
    Movie name : TFPDL.COM - Adventures Into the Woods A Sexy Musical 2012 720p WEBRip x264
    Writing application : Lavf57.25.100
    Comment : TFPDL.COM

    Video
    ID : 1
    Format : AVC
    Format/Info : Advanced Video Codec
    Format profile : [email protected]
    Format settings : CABAC / 4 Ref Frames
    Format settings, CABAC : Yes
    Format settings, Reference fra : 4 frames
    Codec ID : avc1
    Codec ID/Info : Advanced Video Coding
    Duration : 1 h 38 min
    Bit rate : 1 037 kb/s
    Width : 1 280 pixels
    Height : 720 pixels
    Display aspect ratio : 16:9
    Frame rate mode : Variable
    Frame rate : 23.976 (24000/1001) FPS
    Minimum frame rate : 23.564 FPS
    Maximum frame rate : 24.390 FPS
    Color space : YUV
    Chroma subsampling : 4:2:0
    Bit depth : 8 bits
    Scan type : Progressive
    Bits/(Pixel*Frame) : 0.047
    Stream size : 732 MiB (91%)
    Writing library : x264 core 146 r2 121396c
    Codec configuration box : avcC

    Audio
    ID : 2
    Format : AAC LC
    Format/Info : Advanced Audio Codec Low Complexity
    Codec ID : mp4a-40-2
    Duration : 1 h 38 min
    Bit rate mode : Constant
    Bit rate : 92.0 kb/s
    Channel(s) : 2 channels
    Channel layout : L R
    Sampling rate : 48.0 kHz
    Frame rate : 46.875 FPS (1024 SPF)
    Compression mode : Lossy
    Stream size : 65.0 MiB (8%)
    Language : English
    Default : Yes
    Alternate group : 1
    [​IMG]
    [​IMG]
    [​IMG]
    [​IMG]


    [​IMG]
    [​IMG]

    Nhấn nút Cảm ơn (dưới chân bài) để thấy link!

    [​IMG]
    Phụ đề mình dịch, chúc xem phim vui vẻ!
     
  20. 5ti

    5ti Uploader

    Tham gia ngày:
    7/7/08
    Bài viết:
    1,480
    Đã được cảm ơn:
    12,159
    tonthatduc and LAN1956 like this.

Chia sẻ trang này