[Tâm Lý xã Hội| Tình Cảm] Bộ sưu tập các phim Tình Cảm Dã sử, Cổ trang Trung Quốc, Nhật Bản ( DVD5-D

Thảo luận trong 'mHD, SD' bắt đầu bởi 5ti, 18/7/14.

  1. 5ti

    5ti Uploader

    Tham gia ngày:
    7/7/08
    Bài viết:
    1,480
    Đã được cảm ơn:
    12,159
    madcata, vikiet, LAN1956 and 10 others like this.
  2. nload

    nload New Member

    Tham gia ngày:
    31/12/18
    Bài viết:
    2
    Đã được cảm ơn:
    1
    Giới tính:
    Nam
    Bác 5ti có 2 flim này thì up giúp em nhé,trân thành cảm ơn...
    - Forbidden Love 1993
    - Love chaser 1993
     
  3. dinhdong

    dinhdong New Member

    Tham gia ngày:
    16/4/10
    Bài viết:
    1
    Đã được cảm ơn:
    0
    Mã:
    https://www.fshare.vn/file/L7WRSD6JWNB9
     
  4. tonthatduc

    tonthatduc Well-Known Member

    Tham gia ngày:
    19/7/12
    Bài viết:
    241
    Đã được cảm ơn:
    1,664
    Ciao.Ciao.2017.DVDrip
    Xảo Xảo-Phụ đề Việt

    [​IMG]
    [​IMG]

    [​IMG]
    General
    Complete name : Ciao.Ciao.2017.DVDrip.mkv
    Format : Matroska
    Format version : Version 4
    File size : 1.46 GiB
    Duration : 1 h 22 min
    Overall bit rate : 2 530 kb/s
    Encoded date : UTC 2018-07-17 19:48:40
    Writing application : mkvmerge v21.0.0 ('Tardigrades Will Inherit The Earth') 64-bit
    Writing library : libebml v1.3.5 + libmatroska v1.4.8

    Video
    ID : 1
    Format : AVC
    Format/Info : Advanced Video Codec
    Format profile : [email protected]
    Format settings : CABAC / 5 Ref Frames
    Format settings, CABAC : Yes
    Format settings, Reference fra : 5 frames
    Codec ID : V_MPEG4/ISO/AVC
    Duration : 1 h 22 min
    Bit rate : 2 500 kb/s
    Width : 1 696 pixels
    Height : 720 pixels
    Display aspect ratio : 2.35:1
    Frame rate mode : Constant
    Frame rate : 24.000 FPS
    Color space : YUV
    Chroma subsampling : 4:2:0
    Bit depth : 8 bits
    Scan type : Progressive
    Bits/(Pixel*Frame) : 0.085
    Stream size : 1.39 GiB (95%)
    Writing library : x264 core 148 r2721 72d53ab
    Default : Yes
    Forced : No

    Audio
    ID : 2
    Format : AAC LC
    Format/Info : Advanced Audio Codec Low Complexity
    Codec ID : A_AAC-2
    Duration : 1 h 22 min
    Bit rate : 128 kb/s
    Channel(s) : 2 channels
    Channel layout : L R
    Sampling rate : 44.1 kHz
    Frame rate : 43.066 FPS (1024 SPF)
    Compression mode : Lossy
    Delay relative to video : -83 ms
    Stream size : 75.7 MiB (5%)
    Default : Yes
    Forced : No

    Text
    ID : 3
    Format : UTF-8
    Codec ID : S_TEXT/UTF8
    Codec ID/Info : UTF-8 Plain Text
    Duration : 1 h 14 min
    Bit rate : 24 b/s
    Count of elements : 371
    Stream size : 13.4 KiB (0%)
    Default : Yes
    Forced : No
    [​IMG]
    [​IMG]
    [​IMG]

    [​IMG] [​IMG] [​IMG] [​IMG]
    [​IMG]
    [​IMG]
    [​IMG]

    [​IMG]
    [​IMG]

    Link tải phim
    Nhấn nút Cảm ơn (dưới chân bài) để thấy link!

    [​IMG]
     
  5. 5ti

    5ti Uploader

    Tham gia ngày:
    7/7/08
    Bài viết:
    1,480
    Đã được cảm ơn:
    12,159
  6. hoasua3216

    hoasua3216 Well-Known Member

    Tham gia ngày:
    9/12/14
    Bài viết:
    1,241
    Đã được cảm ơn:
    1,066
    Giới tính:
    Nam
    Nơi ở:
    Hà nội
    Các bạn ơi duy trì phát triển chủ đề này đi
     
  7. 5ti

    5ti Uploader

    Tham gia ngày:
    7/7/08
    Bài viết:
    1,480
    Đã được cảm ơn:
    12,159
    Bổ xung cho bạn @tonthatduc bản 1080p

    Ciao Ciao.2017.CN.WEB-DL.1920x.1080p.x264.ACC-KOOK
    Xảo Xảo-Phụ đề Việt
    [​IMG]

    Bản 1080p
    Link tải phim
    Nhấn nút Cảm ơn (dưới chân bài) để thấy link!
     
  8. hoasua3216

    hoasua3216 Well-Known Member

    Tham gia ngày:
    9/12/14
    Bài viết:
    1,241
    Đã được cảm ơn:
    1,066
    Giới tính:
    Nam
    Nơi ở:
    Hà nội
    Của bạn có Sub Việt đâu
     
  9. tonthatduc

    tonthatduc Well-Known Member

    Tham gia ngày:
    19/7/12
    Bài viết:
    241
    Đã được cảm ơn:
    1,664
    Ông này nói thì hay lắm:
    Còn thực tế thì:
    và:
    Thay vì dành thời gian cãi vã, sao không vào subscene mà tải phụ đề?
    Phim Ciao Ciao 2017 tôi đưa lên ngay post trên, bác @5ti chỉ đưa thêm bản webdl, còn phụ đề tôi post ở trên rồi còn muốn gì nữa? Hay còn muốn uploader mux phụ đề Việt vào phim à?
     
    5ti cảm ơn bài này.
  10. hoasua3216

    hoasua3216 Well-Known Member

    Tham gia ngày:
    9/12/14
    Bài viết:
    1,241
    Đã được cảm ơn:
    1,066
    Giới tính:
    Nam
    Nơi ở:
    Hà nội
    Bạn nói Xảo Xảo-Phụ đề Việt , Không thấy nên tôi mới nói không Sub Việt còn trích ở đâu câu Bạn kiểm tra lại đi Sub anh chứ đâu phải sub Việt lấy đâu ra vậy
     
  11. 5ti

    5ti Uploader

    Tham gia ngày:
    7/7/08
    Bài viết:
    1,480
    Đã được cảm ơn:
    12,159
    Cậu @hoasua3216 này đã rất nhiều lần thắc mắc về vấn đề phụ đề Việt, tôi cũng đã giải thích nhiều lần nhưng cậu này vẫn ko hiểu.
    Tôi nói lại là từ giờ các phim trên này tôi ghi là phụ đề Việt tức là thông báo phim này đã có phụ đề Việt, nếu tiện thì tôi sẽ đăng links sub Việt kèm theo, còn các phim không có links thì lên subscene mà lấy về nhé.
     
    Chỉnh sửa cuối: 20/10/20
    tonthatduc cảm ơn bài này.
  12. 5ti

    5ti Uploader

    Tham gia ngày:
    7/7/08
    Bài viết:
    1,480
    Đã được cảm ơn:
    12,159
    Raped by an Angel (1993) PAL DVD9 AudioVie

    [​IMG]


    Link tải phim
    Nhấn nút Cảm ơn (dưới chân bài) để thấy link!
     
    ueki3010, ltdanh267, Lookin and 64 others like this.
  13. tonthatduc

    tonthatduc Well-Known Member

    Tham gia ngày:
    19/7/12
    Bài viết:
    241
    Đã được cảm ơn:
    1,664
    Suffering.of.Ninko.2016.720p.BluRay.x264-GHOULS
    Nỗi thống khổ của Ninko-Phụ đề Việt

    [​IMG]
    [​IMG]

    [​IMG]
    General
    Filename.......: suffering.of.ninko.2016.720p.bluray.x264-ghouls.mkv
    FileSize.......: 3.28 GiB
    Duration.......: 1 h 10 min
    Video
    Codec..........: AVC x264 [email protected]
    Resolution.....: 1280x720
    Aspect ratio...: 16:9
    Bit rate.......: 5 121 kb/s
    Frame rate.....: 23.976 fps
    Audio
    Language.......: Japanese
    Channels.......: 2 CH
    Format.........: DTS
    Bit rate.......: 1 509 kb/s
    Subtitle.......: English
    [​IMG]
    [​IMG]
    [​IMG]
    [​IMG] [​IMG] [​IMG] [​IMG]
    [​IMG]

    [​IMG]
    [​IMG]

    Link tải phim
    Nhấn nút Cảm ơn (dưới chân bài) để thấy link!

    [​IMG]

     
    Chỉnh sửa cuối: 22/11/20
  14. 5ti

    5ti Uploader

    Tham gia ngày:
    7/7/08
    Bài viết:
    1,480
    Đã được cảm ơn:
    12,159
  15. nos

    nos Member

    Tham gia ngày:
    24/11/09
    Bài viết:
    61
    Đã được cảm ơn:
    6
    buunguyen cảm ơn bài này.
  16. 5ti

    5ti Uploader

    Tham gia ngày:
    7/7/08
    Bài viết:
    1,480
    Đã được cảm ơn:
    12,159
    Bổ xung cho bạn @tonthatduc bản 1080p

    Suffering.of.Ninko.2016.JAPANESE.1080p.BluRay.REMUX.AVC.DTS-HD.MA.2.0-FGT.mkv
    Nỗi thống khổ của Ninko-Phụ đề Việt
    [​IMG]

    [​IMG]
    Link tải phim
    Nhấn nút Cảm ơn (dưới chân bài) để thấy link!

    [​IMG]
    Sub Việt do bạn @tonthatduc biên dịch
    xin cám ơn bạn nhiều


     
  17. tonthatduc

    tonthatduc Well-Known Member

    Tham gia ngày:
    19/7/12
    Bài viết:
    241
    Đã được cảm ơn:
    1,664
    Rope.Torture.1984.BRrip
    Tra tấn bằng dây trói-Phụ đề Việt

    [​IMG] [​IMG]
    [​IMG]
    General
    Complete name : Rope.Torture.1984.BRrip.mkv
    Format : Matroska
    Format version : Version 4
    File size : 1.64 GiB
    Duration : 1 h 10 min 33 sec

    Video
    ID : 1
    Format : AVC
    Format/Info : Advanced Video Codec
    Format profile : [email protected]
    Format settings : CABAC / 15 Ref Frames
    Format settings, CABAC : Yes
    Format settings, Reference fra : 15 frames
    Codec ID : V_MPEG4/ISO/AVC
    Duration : 1 h 10 min
    Bit rate : 3 050 kb/s
    Width : 1 024 pixels
    Height : 524 pixels
    Display aspect ratio : 1.954
    Frame rate mode : Constant
    Frame rate : 23.976 (24000/1001) FPS
    Color space : YUV
    Chroma subsampling : 4:2:0
    Bit depth : 8 bits
    Scan type : Progressive
    Bits/(Pixel*Frame) : 0.237
    Stream size : 1.48 GiB (90%)
    Default : Yes
    Forced : No

    Audio
    ID : 2
    Format : AC-3
    Format/Info : Audio Coding 3
    Commercial name : Dolby Digital
    Codec ID : A_AC3
    Duration : 1 h 10 min
    Bit rate mode : Constant
    Bit rate : 256 kb/s
    Channel(s) : 2 channels
    Channel layout : L R
    Sampling rate : 48.0 kHz
    Frame rate : 31.250 FPS (1536 SPF)
    Bit depth : 16 bits
    Compression mode : Lossy
    Stream size : 129 MiB (8%)
    Title : jpn
    Language : Japanese
    Service kind : Complete Main
    Default : Yes
    Forced : No

    Text #1
    ID : 3
    Format : UTF-8
    Codec ID : S_TEXT/UTF8
    Codec ID/Info : UTF-8 Plain Text
    Title : eng
    Language : English
    Default : Yes
    Forced : No

    Text #2
    ID : 4
    Format : PGS
    Muxing mode : zlib
    Codec ID : S_HDMV/PGS
    Codec ID/Info : Picture based subtitle format used on BDs/HD-DVDs
    Title : eng
    Language : English
    Default : No
    Forced : No

    Text #3
    ID : 5
    Format : PGS
    Muxing mode : zlib
    Codec ID : S_HDMV/PGS
    Codec ID/Info : Picture based subtitle format used on BDs/HD-DVDs
    Title : jpn
    Language : Japanese
    Default : No
    Forced : No
    [​IMG]
    [​IMG]
    [​IMG]
    [​IMG] [​IMG] [​IMG] [​IMG] [​IMG] [​IMG]
    [​IMG]

    [​IMG]
    [​IMG]

    Link tải phim
    Nhấn nút Cảm ơn (dưới chân bài) để thấy link!

    [​IMG]

     
  18. 5ti

    5ti Uploader

    Tham gia ngày:
    7/7/08
    Bài viết:
    1,480
    Đã được cảm ơn:
    12,159
    Chỉnh sửa cuối: 29/11/20
  19. minegroasprilla

    minegroasprilla New Member

    Tham gia ngày:
    2/6/19
    Bài viết:
    3
    Đã được cảm ơn:
    1
    Giới tính:
    Nam
    Phong Smith cảm ơn bài này.
  20. fbi098

    fbi098 New Member

    Tham gia ngày:
    19/1/12
    Bài viết:
    1
    Đã được cảm ơn:
    1
    up lai phim nay gium bac oi thanks thớt Sex.and.Zen.Extreme.Ecstasy.Director'[email protected]
     
    rosechung cảm ơn bài này.

Chia sẻ trang này