[Fshare] The Man from Macau 2014 ViE 1080p WEB-DL DD5.1 x264-SmY- Sóng Gió ở Macau 2014 | Châu Nhuận Phát, Tạ

Thảo luận trong 'Phim có audio Việt' bắt đầu bởi xemaydinh, 23/5/14.

  1. xemaydinh

    xemaydinh Tem

    Tham gia ngày:
    3/7/10
    Bài viết:
    31,403
    Đã được cảm ơn:
    141,510
    The Man from Macau 2014 ViE 1080p WEB-DL DD5.1 x264-SmY
    Sóng Gió ở Macau 2014



    [​IMG]

    [​IMG]





    Mã:
    MEDIAINFO
    Format                                   : Matroska
    Format version                           : Version 4 / Version 2
    File size                                : 2.35 GiB
    Duration                                 : 1h 33mn
    Overall bit rate                         : 3 601 Kbps
    Movie name                               : [email protected]
    Encoded date                             : UTC 2014-05-23 09:40:29
    Writing application                      : mkvmerge v6.7.0 ('Back to the Ground') 32bit built on Jan  8 2014 15:03:17
    Writing library                          : libebml v1.3.0 + libmatroska v1.4.1
    
    Video
    ID                                       : 1
    Format                                   : AVC
    Format/Info                              : Advanced Video Codec
    Format profile                           : [email protected]
    Format settings, CABAC                   : Yes
    Format settings, ReFrames                : 3 frames
    Codec ID                                 : V_MPEG4/ISO/AVC
    Duration                                 : 1h 33mn
    Bit rate                                 : 2 889 Kbps
    Width                                    : 1 920 pixels
    Height                                   : 816 pixels
    Display aspect ratio                     : 2.35:1
    Frame rate mode                          : Constant
    Frame rate                               : 24.000 fps
    Color space                              : YUV
    Chroma subsampling                       : 4:2:0
    Bit depth                                : 8 bits
    Scan type                                : Progressive
    Bits/(Pixel*Frame)                       : 0.077
    Stream size                              : 1.89 GiB (80%)
    Default                                  : Yes
    Forced                                   : No
    Color primaries                          : BT.709
    Transfer characteristics                 : BT.709
    Matrix coefficients                      : BT.709
    
    Audio
    ID                                       : 2
    Format                                   : AC-3
    Format/Info                              : Audio Coding 3
    Mode extension                           : CM (complete main)
    Format settings, Endianness              : Big
    Codec ID                                 : A_AC3
    Duration                                 : 1h 33mn
    Bit rate mode                            : Constant
    Bit rate                                 : 640 Kbps
    Channel count                            : 6 channels
    Channel positions                        : Front: L C R, Side: L R, LFE
    Sampling rate                            : 48.0 KHz
    Bit depth                                : 16 bits
    Compression mode                         : Lossy
    Delay relative to video                  : 6s 700ms
    Stream size                              : 428 MiB (18%)
    Language                                 : Vietnamese
    Default                                  : Yes
    Forced                                   : No


    [​IMG]




    [​IMG] [​IMG] [​IMG] [​IMG] [​IMG] [​IMG] [​IMG] [​IMG] [​IMG] [​IMG] [​IMG] [​IMG]

    [​IMG]


    [video=youtube;ZYDOk0za4gk]https://www.youtube.com/watch?v=ZYDOk0za4gk[/video]






    1 link Fshare ~2.35GB


    Nhấn nút Cảm ơn (dưới chân bài) để thấy link!






    Sub




    [​IMG] [​IMG] [​IMG]





    Bluray

    1080p

    720p

    mhd


    D/S phim hay duoc chon loc
     
    hiepphieuluu, fsvnhd, hdfsvn and 3 others like this.
  2. Đang tải...


  3. welcometosaigon

    welcometosaigon Well-Known Member

    Tham gia ngày:
    28/12/09
    Bài viết:
    731
    Đã được cảm ơn:
    371
    Nơi ở:
    Trái Đất
    Ðề: The Man from Macau 2014 ViE 1080p WEB-DL DD5.1 x264-SmY- Sóng Gió ở Macau 2014 | Châu Nhuận Phát, Tạ Đình Phong, Cảnh Điềm

    Dung lượng thấp đến lạ nhỉ !
     
  4. vietnamismylife

    vietnamismylife New Member

    Tham gia ngày:
    20/1/12
    Bài viết:
    58
    Đã được cảm ơn:
    9
    Ðề: The Man from Macau 2014 ViE 1080p WEB-DL DD5.1 x264-SmY- Sóng Gió ở Macau 2014 | Châu Nhuận Phát, Tạ Đình Phong, Cảnh Điềm

    sao dung lượng thấp vậy bạn
     
  5. bokinhvan113

    bokinhvan113 New Member

    Tham gia ngày:
    7/9/12
    Bài viết:
    173
    Đã được cảm ơn:
    10
    thuyết minh ah bạn
     
  6. sinhnguyen65

    sinhnguyen65 Member

    Tham gia ngày:
    18/3/14
    Bài viết:
    72
    Đã được cảm ơn:
    6
    Ðề: The Man from Macau 2014 ViE 1080p WEB-DL DD5.1 x264-SmY- Sóng Gió ở Macau 2014 | Châu Nhuận Phát, Tạ Đình Phong, Cảnh Điềm

    không có sub English hay việt coi không hiểu.
    khi nào có sub download luôn một thể.

    Cám ơn

    SM
     
  7. kennyt

    kennyt Active Member

    Tham gia ngày:
    10/6/10
    Bài viết:
    314
    Đã được cảm ơn:
    105
    Ðề: The Man from Macau 2014 ViE 1080p WEB-DL DD5.1 x264-SmY- Sóng Gió ở Macau 2014 | Châu Nhuận Phát, Tạ Đình Phong, Cảnh Điềm

    Có thuyết minh cần gì sub nữa bạn.
     
  8. lackienbinh

    lackienbinh Well-Known Member

    Tham gia ngày:
    27/10/11
    Bài viết:
    979
    Đã được cảm ơn:
    107
    Nghề nghiệp:
    Engineer
    Nơi ở:
    TP.HCM, Việt Nam
    Ðề: The Man from Macau 2014 ViE 1080p WEB-DL DD5.1 x264-SmY- Sóng Gió ở Macau 2014 | Châu Nhuận Phát, Tạ Đình Phong, Cảnh Điềm

    Bữa xem online, cực kỳ thất vọng với film này lun! ~X(
     

Chia sẻ trang này