[Fshare] [Thuyết Minh] Tiger: Spy in the Jungle S01 ViE 1080p NF WEB-DL DD2.0 x264-c0kE Gián điệp trong rừng

Thảo luận trong 'Phim Tài Liệu - Thuyết Minh' bắt đầu bởi cuong_7694, 18/4/21.

  1. cuong_7694

    cuong_7694 Well-Known Member

    Tham gia ngày:
    8/9/12
    Bài viết:
    1,696
    Đã được cảm ơn:
    1,805
    Nơi ở:
    Hà Nội
    [​IMG]

    BBC Tiger: Spy in the Jungle S01 ViE 1080p NF WEB-DL DD2.0 x264-c0kE

    Những chú voi đem theo những chiếc máy quay gián điệp sẽ kể cho chúng ta câu chuyện trưởng thành của 4 chú hổ trong khu rừng ấn độ. Suốt hơn 2 năm, những chiếc camera theo sát sự phát triển của chúng từ nhỏ cho đến khi trở thành những thợ săn trưởng thành

    Complete name : Tiger.Spy.in.the.Jungle.S01.ViE.1080p.NF.WEB-DL.DD2.0.x264-c0kE
    Format : Matroska

    Format version : Version 4 / Version 2

    File size : 3.01 GiB
    Duration : 52mn 9s
    Overall bit rate mode : Variable
    Overall bit rate : 8 251 Kbps
    Encoded date : UTC 2021-04-17 13:36:37
    Writing application : mkvmerge v6.0.0 ('Coming Up For Air') built on Jan 20 2013 09:52:00
    Writing library : libebml v1.3.0 + libmatroska v1.4.0
    DURATION : 00:51:21.520000000
    NUMBER_OF_FRAMES : 485
    NUMBER_OF_BYTES : 21991
    _STATISTICS_WRITING_APP : mkvmerge v25.0.0 ('Prog Noir') 64-bit
    _STATISTICS_WRITING_DATE_UTC : 2018-07-17 22:37:10
    _STATISTICS_TAGS : BPS DURATION NUMBER_OF_FRAMES NUMBER_OF_BYTES

    Video
    ID : 2
    Format : AVC
    Format/Info : Advanced Video Codec
    Format profile : [email protected]
    Format settings, CABAC : Yes
    Format settings, ReFrames : 3 frames
    Codec ID : V_MPEG4/ISO/AVC
    Duration : 52mn 10s
    Bit rate mode : Variable
    Bit rate : 7 500 Kbps
    Maximum bit rate : 11.2 Mbps
    Width : 1 920 pixels
    Height : 1 080 pixels
    Display aspect ratio : 16:9
    Frame rate mode : Constant
    Frame rate : 25.000 fps
    Color space : YUV
    Chroma subsampling : 4:2:0
    Bit depth : 8 bits
    Scan type : Progressive
    Bits/(Pixel*Frame) : 0.145
    Stream size : 2.67 GiB (89%)
    Writing library : x264 core 118
    Encoding settings : cabac=1 / ref=3 / deblock=1:0:0 / analyse=0x1:0x111 / me=umh / subme=10 / psy=1 / psy_rd=1.00:0.00 / mixed_ref=1 / me_range=24 / chroma_me=1 / trellis=2 / 8x8dct=0 / cqm=0 / deadzone=21,11 / fast_pskip=1 / chroma_qp_offset=-2 / threads=8 / sliced_threads=0 / nr=0 / decimate=1 / interlaced=0 / bluray_compat=0 / constrained_intra=0 / bframes=2 / b_pyramid=0 / b_adapt=2 / b_bias=0 / direct=3 / weightb=1 / open_gop=0 / weightp=2 / keyint=50 / keyint_min=26 / scenecut=0 / intra_refresh=0 / rc_lookahead=0 / rc=2pass / mbtree=1 / bitrate=7500 / ratetol=1.0 / qcomp=0.50 / qpmin=6 / qpmax=51 / qpstep=4 / cplxblur=20.0 / qblur=0.5 / vbv_maxrate=11250 / vbv_bufsize=15000 / nal_hrd=vbr / ip_ratio=1.40 / aq=1:1.00
    Default : Yes
    Forced : No

    Audio #1
    ID : 1
    Format : AC-3
    Format/Info : Audio Coding 3
    Mode extension : CM (complete main)
    Format settings, Endianness : Big
    Codec ID : A_AC3
    Duration : 52mn 9s
    Bit rate mode : Constant
    Bit rate : 640 Kbps
    Channel count : 2 channels
    Channel positions : Front: L R
    Sampling rate : 48.0 KHz
    Bit depth : 16 bits
    Compression mode : Lossy
    Stream size : 239 MiB (8%)
    Title : Thuyết Minh l [email protected]
    Language : Vietnamese
    Default : Yes
    Forced : Yes
    Encoded date : UTC 2016-05-19 04:17:54
    HANDLER_NAME : Audio Media Handler
    DURATION : 00:52:09.888000000
    NUMBER_OF_FRAMES : 97809
    NUMBER_OF_BYTES : 50078208
    _STATISTICS_WRITING_APP : mkvmerge v25.0.0 ('Prog Noir') 64-bit
    _STATISTICS_WRITING_DATE_UTC : 2018-07-17 22:37:10
    _STATISTICS_TAGS : BPS DURATION NUMBER_OF_FRAMES NUMBER_OF_BYTES

    Audio #2
    ID : 3
    Format : E-AC-3
    Format/Info : Audio Coding 3
    Format settings, Endianness : Big
    Codec ID : A_EAC3
    Duration : 52mn 9s
    Bit rate mode : Constant
    Bit rate : 128 Kbps
    Channel count : 2 channels
    Channel positions : Front: L R
    Sampling rate : 48.0 KHz
    Compression mode : Lossy
    Stream size : 47.8 MiB (2%)
    Default : No
    Forced : No

     
    thanhyk, giabachmc, thaogng and 5 others like this.
  2. Đang tải...


  3. tudotuong

    tudotuong Well-Known Member

    Tham gia ngày:
    6/9/10
    Bài viết:
    786
    Đã được cảm ơn:
    1,081
    cám ơn bác chủ:)
     
  4. traihue_75

    traihue_75 Active Member

    Tham gia ngày:
    30/1/17
    Bài viết:
    259
    Đã được cảm ơn:
    134
    Giới tính:
    Nam
    sao bác không để mỗi series trong một foldor cho anh em dễ tìm nhỉ...dù gì cũng cảm ơn bác :)
     
    cuong_7694 cảm ơn bài này.

Chia sẻ trang này