[Fshare] Tiêu Diệt Nhân Chứng ''In the Line of Duty 4'' 1989 BluRay 1080p DD5.1 x264 - USLT

Thảo luận trong 'Phim có audio Việt' bắt đầu bởi neoquiller, 1/3/21.

  1. neoquiller

    neoquiller Well-Known Member

    Tham gia ngày:
    3/9/09
    Bài viết:
    443
    Đã được cảm ơn:
    5,604
    Giới tính:
    Nam
    Tiêu Diệt Nhân Chứng
    In the Line of Duty IV 1989
    ***Lồng Tiếng DD5.1***

    Bản đẹp và nhẹ cho A/E nào thiếu lưu trữ!
    Diễn Viên:

    Dương Lệ Thanh, Vương Mẫn Đức, Chung Tử Đơn, Viên Nhật Sơ, Liêu Khải Trí, Tiêu Giao
    [​IMG][​IMG][​IMG][​IMG]

    Chi tiết file:

    Complete name : F:\In the Line of Duty IV 1989 BluRay 1080p DD5.1 x264 - USLT.mkv
    Format : Matroska
    Format version : Version 4
    File size : 4.80 GiB
    Duration : 1 h 34 min
    Overall bit rate : 7 241 kb/s
    Video
    ID : 1
    Format : AVC
    Format/Info : Advanced Video Codec
    Format profile : [email protected]
    Format settings : CABAC / 4 Ref Frames
    Format settings, CABAC : Yes
    Format settings, Reference frames : 4 frames
    Codec ID : V_MPEG4/ISO/AVC
    Duration : 1 h 34 min
    Bit rate : 5 817 kb/s
    Width : 1 920 pixels
    Height : 1 080 pixels
    Display aspect ratio : 16:9
    Frame rate mode : Constant
    Frame rate : 23.976 (24000/1001) FPS
    Color space : YUV
    Chroma subsampling : 4:2:0
    Bit depth : 8 bits
    Scan type : Progressive
    Bits/(Pixel*Frame) : 0.117
    Stream size : 3.85 GiB (80%)
    Default : Yes
    Forced : No

    Audio #1
    ID : 2
    Format : AC-3
    Format/Info : Audio Coding 3
    Commercial name : Dolby Digital
    Codec ID : A_AC3
    Duration : 1 h 34 min
    Bit rate mode : Constant
    Bit rate : 640 kb/s
    Channel(s) : 6 channels
    Channel layout : L R C LFE Ls Rs
    Sampling rate : 48.0 kHz
    Frame rate : 31.250 FPS (1536 SPF)
    Compression mode : Lossy
    Stream size : 433 MiB (9%)
    Language : Vietnamese
    Service kind : Complete Main
    Default : Yes
    Forced : No

    Audio #2
    ID : 3
    Format : AC-3
    Format/Info : Audio Coding 3
    Commercial name : Dolby Digital
    Codec ID : A_AC3
    Duration : 1 h 34 min
    Bit rate mode : Constant
    Bit rate : 640 kb/s
    Channel(s) : 6 channels
    Channel layout : L R C LFE Ls Rs
    Sampling rate : 48.0 kHz
    Frame rate : 31.250 FPS (1536 SPF)
    Compression mode : Lossy
    Stream size : 433 MiB (9%)
    Language : Chinese
    Service kind : Complete Main
    Default : Yes
    Forced : No

    Pass: neoquiller
    Nhấn nút Cảm ơn (dưới chân bài) để thấy link!
     
    Chỉnh sửa cuối: 2/3/21
  2. Đang tải...


  3. HảiYến2k

    HảiYến2k Well-Known Member

    Tham gia ngày:
    5/7/19
    Bài viết:
    770
    Đã được cảm ơn:
    511
    Giới tính:
    Nữ
    Có mấy phần trước k bạn
     
  4. neoquiller

    neoquiller Well-Known Member

    Tham gia ngày:
    3/9/09
    Bài viết:
    443
    Đã được cảm ơn:
    5,604
    Giới tính:
    Nam
    Có nhé bạn! để load lên tiếp nha
     
  5. HảiYến2k

    HảiYến2k Well-Known Member

    Tham gia ngày:
    5/7/19
    Bài viết:
    770
    Đã được cảm ơn:
    511
    Giới tính:
    Nữ
    OK bạn lên het các phần đi a
     
    qran cảm ơn bài này.
  6. tieuphong96

    tieuphong96 Member

    Tham gia ngày:
    14/9/12
    Bài viết:
    80
    Đã được cảm ơn:
    41
    Có bản uslt Bluray goc luon ko huynh?
     
  7. neoquiller

    neoquiller Well-Known Member

    Tham gia ngày:
    3/9/09
    Bài viết:
    443
    Đã được cảm ơn:
    5,604
    Giới tính:
    Nam
    Mình ko có bản Bluray ISO nặng quá!
     
  8. tamquocgia94

    tamquocgia94 Well-Known Member

    Tham gia ngày:
    30/10/17
    Bài viết:
    1,348
    Đã được cảm ơn:
    48,476
    Giới tính:
    Nam
    Nghề nghiệp:
    Osin tổng thống
    Nơi ở:
    Dubai
    Hóng những phần còn lại mong Ad up
     
  9. quangvu27

    quangvu27 Well-Known Member

    Tham gia ngày:
    27/1/11
    Bài viết:
    705
    Đã được cảm ơn:
    276
    hóng up đủ full ạ
     
  10. nht2015

    nht2015 Member

    Tham gia ngày:
    2/7/15
    Bài viết:
    61
    Đã được cảm ơn:
    21
    hóng AD up FULL Các phần "IN THE LINE OF DUTY" bản full HD ! CÁM ƠN VÔ VÀN !
     
  11. vovanloc271

    vovanloc271 Member

    Tham gia ngày:
    24/8/21
    Bài viết:
    53
    Đã được cảm ơn:
    95
    Giới tính:
    Nam
    Nơi ở:
    Tiền Giang
    Bạn biết nào đánh nhau giống như phim này không hồi đó mình xem nhiều phim như này lắm mà ko biết tên
     

Chia sẻ trang này