[Tình Cảm | 1 Link]Shortbus 2006 720p BluRay x264 DTS-HDChina

Thảo luận trong 'Fshare.vn' bắt đầu bởi kiaminh, 12/7/12.

  1. kiaminh

    kiaminh Well-Known Member

    Tham gia ngày:
    16/11/10
    Bài viết:
    1,214
    Đã được cảm ơn:
    1,144
    Shortbus 2006 720p BluRay x264 DTS-HDChina (18++) Sub Việt

    Phim có nhiều cảnh người lớn, khán giả cân nhắc trước khi xem.

    [​IMG]
    Shortbus (2006) - IMDb

    Mã:

    Shortbus.2006.720p.BluRay.x264.DTS-HDChina
    
    	

    --------------------------MEDiA iNFO----------------------------- SOURCE TYPE.....: BluRay 1080p AVC DTS-HD.MA 5.1 ViDEO BiTRATE...: x264 L4.1 High 2pass @ 6198 kbps FRAME RATE......: 23.976 fps AUDiO...........: English DTS 5.1 @ 1510 kbps (DTS-HD.MA Core) SUBTiTLE........: English VobSub RUNTiME.........: 1:41:24.518 ASPECT RATiO....: 16:9 RESOLUTiON......: 1280 x 720 FilE SiZE.......: 5.46 GB --------------------------IMDB iNFO------------------------------ iMDB URL........: http://www.imdb.com/title/tt0367027/ iMDB RATiNG.....: 6.5/10 from 17,775 users GENRE...........: Comedy | Drama | Romance --------------------------RELEASE iNFO--------------------------- THEATER DATE....: 2006/05/20 (France) RELEASE DATE....: 2012/03/09 ENCODER.........: AllanLee @ HDChina Complete name : Shortbus.2006.720p.BluRay.x264.DTS-HDChina.mkv Format : Matroska File size : 5.46 GiB Duration : 1h 41mn Overall bit rate : 7 712 Kbps Encoded date : UTC 2012-03-09 15:16:53 Writing application : mkvmerge v4.0.0 ('The Stars were mine') built on Jun 6 2010 16:18:42 Writing library : libebml v1.0.0 + libmatroska v1.0.0 Video ID : 1 Format : AVC Format/Info : Advanced Video Codec Format profile : [email protected] Format settings, CABAC : Yes Format settings, ReFrames : 9 frames Muxing mode : Container [email protected] Codec ID : V_MPEG4/ISO/AVC Duration : 1h 41mn Bit rate : 6 201 Kbps Width : 1 280 pixels Height : 720 pixels Display aspect ratio : 16:9 Frame rate : 23.976 fps Color space : YUV Chroma subsampling : 4:2:0 Bit depth : 8 bits Scan type : Progressive Bits/(Pixel*Frame) : 0.281 Stream size : 4.28 GiB (78%) Writing library : x264 core 116 r2074 2641b9e Audio ID : 2 Format : DTS Format/Info : Digital Theater Systems Codec ID : A_DTS Duration : 1h 41mn Bit rate mode : Constant Bit rate : 1 510 Kbps Channel(s) : 6 channels Channel positions : Front: L C R, Side: L R, LFE Sampling rate : 48.0 KHz Bit depth : 16 bits Stream size : 1.07 GiB (20%) Text ID : 3 Format : VobSub Codec ID : S_VOBSUB Codec ID/Info : The same subtitle format used on DVDs Menu 00:00:00.000 : en:Chapter.01 00:07:07.135 : en:Chapter.02 00:15:53.369 : en:Chapter.03 00:23:16.895 : en:Chapter.04 00:29:27.474 : en:Chapter.05 00:33:50.528 : en:Chapter.06 00:39:57.103 : en:Chapter.07 00:45:15.713 : en:Chapter.08 00:51:09.191 : en:Chapter.09 00:57:17.350 : en:Chapter.10 01:03:47.156 : en:Chapter.11 01:08:28.729 : en:Chapter.12 01:14:30.382 : en:Chapter.13 01:20:17.687 : en:Chapter.14 01:26:14.878 : en:Chapter.15 01:35:24.176 : en:Chapter.16 -------------------------- x264 iNFO ----------------------------- x264 [info]: frame I:898 Avg QP:18.32 size:121588 x264 [info]: frame P:30409 Avg QP:21.32 size: 41338 x264 [info]: frame B:114577 Avg QP:22.49 size: 29219 x264 [info]: consecutive B-frames: 2.5% 2.1% 7.5% 8.6% 13.6% 55.4% 6.0% 1.3% 1.1% 1.2% 0.7% x264 [info]: mb I I16..4: 4.7% 88.8% 6.5% x264 [info]: mb P I16..4: 1.8% 15.5% 0.8% P16..4: 48.0% 20.8% 3.0% 0.4% 0.1% skip: 9.7% x264 [info]: mb B I16..4: 0.1% 3.2% 0.1% B16..8: 42.0% 13.9% 3.2% direct:12.2% skip:25.4% L0:48.1% L1:42.9% BI: 9.0% x264 [info]: 8x8 transform intra:89.5% inter:76.0% x264 [info]: direct mvs spatial:96.9% temporal:3.1% x264 [info]: coded y,uvDC,uvAC intra: 88.7% 88.3% 67.0% inter: 45.8% 47.8% 22.9% x264 [info]: i16 v,h,dc,p: 39% 16% 9% 36% x264 [info]: i8 v,h,dc,ddl,ddr,vr,hd,vl,hu: 8% 7% 5% 11% 16% 15% 15% 12% 13% x264 [info]: i4 v,h,dc,ddl,ddr,vr,hd,vl,hu: 8% 7% 2% 10% 17% 16% 15% 12% 13% x264 [info]: i8c dc,h,v,p: 48% 16% 15% 22% x264 [info]: Weighted P-Frames: Y:3.1% UV:1.0% x264 [info]: ref P L0: 38.4% 8.7% 20.7% 8.2% 7.6% 5.1% 5.1% 2.9% 3.1% 0.2% 0.0% x264 [info]: ref B L0: 64.2% 15.0% 8.0% 4.6% 3.4% 2.9% 1.5% 0.5% x264 [info]: ref B L1: 90.2% 9.8% x264 [info]: kb/s:6198.03
    Từng được trình chiếu tại Liên hoan phim Cannes vào năm 2006, Shortbus thuộc thể loại tâm lý hài do đạo diễn John Cameron Mitchell thực hiện. Lấy bối cảnh tại thành phố New York ồn ào, phồn hoa, phim là câu chuyện về 7 con người xuất thân từ nhiều tầng lớp trong xã hội. Họ gặp gỡ tại quán bar Shortbus dành cho người đồng tính và tìm đến với nhau. Không đơn thuần là một bộ phim có đề tài tình dục thông thường, Shortbus còn lột tả một cách sâu sắc nỗi cô đơn của những con người luôn kiếm tìm ý nghĩa thực sự của tình dục trong cuộc sống riêng của họ.



    Chuyện chăn gối của những người đồng tính được thể hiện trong Shortbus có phần táo bạo khiến nhiều khán giả có cảm giác ghê tởm. Không ít người cho rằng đây chỉ là một bộ phim cấp ba không hơn không kém.

    Tuy nhiên, những nhà phê bình điện ảnh lại đánh giá rằng đây là một bộ phim có nhiều giá trị sáng tạo trong ngôn ngữ điện ảnh. 7 con người với 7 thân phận khác nhau nhưng đều có một điểm chung là muốn khám phá dục vọng của bản thân. Shortbus đã giành được nhiều giải thưởng điện ảnh quốc tế lớn và nhận được nhiều lời khen ngợi từ các chuyên gia điện ảnh hàng đầu.
    Trên 18 tủi mới được mở, cấm "Tò vò"
    [​IMG] [​IMG]

    [​IMG] [​IMG]

    [​IMG] [​IMG]

    [​IMG] [​IMG]

    [​IMG] [​IMG]



    [​IMG]
    Sub Việt trong Folder

    Nhấn nút Cảm ơn (dưới chân bài) để thấy link!
     
    Chỉnh sửa cuối: 18/7/12
  2. tranvietlinh

    tranvietlinh Member

    Tham gia ngày:
    7/1/11
    Bài viết:
    93
    Đã được cảm ơn:
    3
    Đang nóng trong người....
     
  3. VThanhgtvt

    VThanhgtvt Well-Known Member

    Tham gia ngày:
    30/12/09
    Bài viết:
    22,605
    Đã được cảm ơn:
    1,013
    Giới tính:
    Nam
    Ðề: [Tình Cảm | 1 Link]Shortbus 2006 720p BluRay x264 DTS-HDChina

    Em nhớn hon 18t, chót click vào phần bác ghi chú, muốn quay lại tuổi thơ quá!!! Nóng quá!!!
     
  4. herotech

    herotech New Member

    Tham gia ngày:
    27/6/12
    Bài viết:
    48
    Đã được cảm ơn:
    0
    chiến thui. Đang nóng trong người . Thanks pác đã chia sẻ.
     
  5. tiamero

    tiamero Member

    Tham gia ngày:
    9/8/09
    Bài viết:
    317
    Đã được cảm ơn:
    6
    Ðề: [Tình Cảm | 1 Link]Shortbus 2006 720p BluRay x264 DTS-HDChina

    Phim này có màn góm nhất là chú kia tự uống cái tinh hoa của mình....
     
  6. kengoc15

    kengoc15 Member

    Tham gia ngày:
    9/8/10
    Bài viết:
    53
    Đã được cảm ơn:
    4
    Ðề: [Tình Cảm | 1 Link]Shortbus 2006 720p BluRay x264 DTS-HDChina

    Thanks For Share!!!
     

Chia sẻ trang này