[Tội phạm] Andhahun.2018.1080p.Netflix.DL.AVC.DD.5.1.Vietsub ~ Chàng mù số nhọ

Thảo luận trong 'WEB-DL, HDTV' bắt đầu bởi hatieupro7, 20/12/18.

  1. hatieupro7

    hatieupro7 Well-Known Member

    Tham gia ngày:
    26/9/10
    Bài viết:
    364
    Đã được cảm ơn:
    2,900
    Giới tính:
    Nam
    Nghề nghiệp:
    OSIN
    Nơi ở:
    Haiphong city
    ANDHADHUN (2018)
    CHÀNG MÙ SỐ NHỌ
    (Phim được rate 9 điểm và được đánh giá rất cao trên các web xem film lậu =))))

    IMDB (9/10): https://www.imdb.com/title/tt8108198/


    [​IMG]

    TRAILER



    SCREENSHOTS
    [​IMG]




    PLOT:​

    Mã:
    Complete name               : H:\Andhahun.2018.1080p.Netflix.DL.AVC.DD.5.1.ESUBS.Telly\Andhahun.2018.1080p.Netflix.DL.AVC.DD.5.1.ESUBS.Telly.mkv
    Format                      : Matroska
    Format version              : Version 4 / Version 2
    File size                   : 3.90 GiB
    Duration                    : 2 h 17 min
    Overall bit rate mode       : Variable
    Overall bit rate            : 4 060 kb/s
    Movie name                  : Tellytorrents.net
    Encoded date                : UTC 2018-12-15 14:05:50 / UTC 2018-11-22 06:24:12
    Writing application         : mkvmerge v29.0.0 ('Like It Or Not') 64-bit
    Writing library             : libebml v1.3.6 + libmatroska v1.4.9 / Lavf58.0.0
    Video
    ID                          : 1
    Format                      : AVC
    Format/Info                 : Advanced Video Codec
    Format profile              : [email protected]
    Format settings, CABAC      : Yes
    Format settings, ReFrames   : 3 frames
    Format settings, GOP        : M=3, N=48
    Codec ID                    : V_MPEG4/ISO/AVC
    Duration                    : 2 h 17 min
    Bit rate mode               : Variable
    Bit rate                    : 3 480 kb/s
    Maximum bit rate            : 5 220 kb/s
    Width                       : 1 920 pixels
    Height                      : 1 080 pixels
    Display aspect ratio        : 16:9
    Frame rate mode             : Constant
    Frame rate                  : 24.000 FPS
    Color space                 : YUV
    Chroma subsampling          : 4:2:0
    Bit depth                   : 8 bits
    Scan type                   : Progressive
    Bits/(Pixel*Frame)          : 0.070
    Stream size                 : 3.21 GiB (82%)
    Writing library             : x264 core 148 r2715 7e75228
    Encoding settings           : cabac=1 / ref=3 / deblock=1:0:0 / analyse=0x1:0x111 / me=umh / subme=10 / psy=1 / psy_rd=1.00:0.00 / mixed_ref=1 / me_range=24 / chroma_me=1 / trellis=2 / 8x8dct=0 / cqm=0 / deadzone=21,11 / fast_pskip=1 / chroma_qp_offset=-2 / threads=6 / lookahead_threads=1 / sliced_threads=0 / nr=0 / decimate=1 / interlaced=0 / bluray_compat=0 / stitchable=1 / constrained_intra=0 / bframes=2 / b_pyramid=0 / b_adapt=2 / b_bias=0 / direct=3 / weightb=1 / open_gop=0 / weightp=2 / keyint=48 / keyint_min=25 / scenecut=0 / intra_refresh=0 / rc_lookahead=48 / rc=2pass / mbtree=1 / bitrate=3480 / ratetol=1.0 / qcomp=0.50 / qpmin=6 / qpmax=51 / qpstep=4 / cplxblur=20.0 / qblur=0.5 / vbv_maxrate=5220 / vbv_bufsize=6960 / nal_hrd=vbr / filler=0 / ip_ratio=1.40 / aq=1:1.00
    Default                     : Yes
    Forced                      : No
    Statistics Tags Issue       : mkvmerge v29.0.0 ('Like It Or Not') 64-bit 2018-12-15 14:05:50 / mkvmerge v29.0.0 ('Like It Or Not') 64-bit 2018-12-15 14:05:50 / UTC 2018-11-22 06:24:12
    FromStats_BitRate           : 3417366
    FromStats_Duration          : 02:17:28.667000000
    FromStats_FrameCount        : 197968
    FromStats_StreamSize        : 3523589722
    Audio
    ID                          : 2
    Format                      : E-AC-3
    Format/Info                 : Enhanced Audio Coding 3
    Format settings, Endianness : Big
    Codec ID                    : A_EAC3
    Duration                    : 2 h 17 min
    Bit rate mode               : Constant
    Bit rate                    : 640 kb/s
    Channel(s)                  : 6 channels
    Channel positions           : Front: L C R, Side: L R, LFE
    Sampling rate               : 48.0 kHz
    Frame rate                  : 187.500 FPS (256 spf)
    Compression mode            : Lossy
    Stream size                 : 629 MiB (16%)
    Language                    : Hindi
    Default                     : Yes
    Forced                      : No
    Encoded date                : UTC 2018-11-22 06:24:12
    HANDLER_NAME                : Audio Media Handler
    Statistics Tags Issue       : mkvmerge v29.0.0 ('Like It Or Not') 64-bit 2018-12-15 14:05:50 / mkvmerge v29.0.0 ('Like It Or Not') 64-bit 2018-12-15 14:05:50 / UTC 2018-11-22 06:24:12
    FromStats_BitRate           : 640000
    FromStats_Duration          : 02:17:29.120000000
    FromStats_FrameCount        : 257785
    FromStats_StreamSize        : 659929600
    Text #1
    ID                          : 3
    Format                      : UTF-8
    Codec ID                    : S_TEXT/UTF8
    Codec ID/Info               : UTF-8 Plain Text
    Title                       : English
    Language                    : English
    Default                     : Yes
    Forced                      : Yes
    Statistics Tags Issue       : mkvmerge v29.0.0 ('Like It Or Not') 64-bit 2018-12-15 14:05:50 / mkvmerge v29.0.0 ('Like It Or Not') 64-bit 2018-12-15 14:05:50 / UTC 2018-11-22 06:24:12
    FromStats_BitRate           : 46
    FromStats_Duration          : 02:06:34.291000000
    FromStats_FrameCount        : 1163
    FromStats_StreamSize        : 44605


    LINK DOWNLOAD:
    Nhấn nút Cảm ơn (dưới chân bài) để thấy link!


    VIETSUB BY BMV.Team
    https://subscene.com/subtitles/andhadhun/vietnamese/1900583

    (Trong file film có 12 softsub -_- )
    Chúc các bạn xem phim vui vẻ!
    *Chuyên Vietsub phim Ấn Độ (free) và các phim hành động Mỹ (có phí :v )
    #BMV.Team
    #Bollyw00ds
    #hatieupro
     
    Chỉnh sửa cuối: 28/2/20
  2. hatieupro7

    hatieupro7 Well-Known Member

    Tham gia ngày:
    26/9/10
    Bài viết:
    364
    Đã được cảm ơn:
    2,900
    Giới tính:
    Nam
    Nghề nghiệp:
    OSIN
    Nơi ở:
    Haiphong city
  3. hatieupro7

    hatieupro7 Well-Known Member

    Tham gia ngày:
    26/9/10
    Bài viết:
    364
    Đã được cảm ơn:
    2,900
    Giới tính:
    Nam
    Nghề nghiệp:
    OSIN
    Nơi ở:
    Haiphong city
    Comment đánh giá của các bạn là động lực dịch sub cho subteam... xin cảm ơn!
    upload_2018-12-22_15-42-2.png
     
  4. hatieupro7

    hatieupro7 Well-Known Member

    Tham gia ngày:
    26/9/10
    Bài viết:
    364
    Đã được cảm ơn:
    2,900
    Giới tính:
    Nam
    Nghề nghiệp:
    OSIN
    Nơi ở:
    Haiphong city
    SteveDo and aromat like this.
  5. burmesesubtitle1997

    burmesesubtitle1997 New Member

    Tham gia ngày:
    10/3/19
    Bài viết:
    3
    Đã được cảm ơn:
    0
    Giới tính:
    Nam
    Nghề nghiệp:
    Co-Founder, Admin, Encoder
    Nơi ở:
    Naypyitaw
    Thanks bro
    I am really thank you
     
  6. hatieupro7

    hatieupro7 Well-Known Member

    Tham gia ngày:
    26/9/10
    Bài viết:
    364
    Đã được cảm ơn:
    2,900
    Giới tính:
    Nam
    Nghề nghiệp:
    OSIN
    Nơi ở:
    Haiphong city
  7. hatieupro7

    hatieupro7 Well-Known Member

    Tham gia ngày:
    26/9/10
    Bài viết:
    364
    Đã được cảm ơn:
    2,900
    Giới tính:
    Nam
    Nghề nghiệp:
    OSIN
    Nơi ở:
    Haiphong city
    Update link ợ
     
  8. hatieupro7

    hatieupro7 Well-Known Member

    Tham gia ngày:
    26/9/10
    Bài viết:
    364
    Đã được cảm ơn:
    2,900
    Giới tính:
    Nam
    Nghề nghiệp:
    OSIN
    Nơi ở:
    Haiphong city
    Lâu không ai down link die rồi :(
    Updated link!
    BMV.Team hân hạnh dịch sub bộ phim này và nhận dịch tất cả các thể loại phim với giá bèo....
     

Chia sẻ trang này