[Tôn giáo] The Gospel of John 2003 720p AMZN WEBRip DDP2.0 x264-TEPES

Thảo luận trong 'WEB-DL, HDTV' bắt đầu bởi paulthanhson, 10/8/21.

  1. paulthanhson

    paulthanhson Well-Known Member

    Tham gia ngày:
    2/5/09
    Bài viết:
    686
    Đã được cảm ơn:
    7,695

    PHÚC ÂM THÁNH GIO-AN

    [​IMG]
    [​IMG]
    Mã:

    General
    
    	

    Unique ID : 27716032339413218812755497617590631425 (0x14D9E9E5C43759D9CF1A1D5F0F94BC01) Complete name : D:\HD movies\The Gospel of John 2003 - Tin Mung Thanh Gio-An (HD)\The.Gospel.of.John.2003.720p.AMZN.WEB-DL.DDP2.0.H.264-TEPES.mkv Format : Matroska Format version : Version 4 File size : 7.75 GiB Duration : 3 h 0 min Overall bit rate : 6 144 kb/s Encoded date : UTC 2020-01-16 16:39:54 Writing application : mkvmerge v38.0.0 ('The Silent Type') 64-bit Writing library : libebml v1.3.9 + libmatroska v1.5.2 Video ID : 1 Format : AVC Format/Info : Advanced Video Codec Format profile : [email protected] Format settings : CABAC / 4 Ref Frames Format settings, CABAC : Yes Format settings, Reference : 4 frames Codec ID : V_MPEG4/ISO/AVC Duration : 3 h 0 min Bit rate mode : Constant Bit rate : 6 000 kb/s Width : 1 280 pixels Height : 720 pixels Display aspect ratio : 16:9 Frame rate mode : Constant Frame rate : 29.970 (30000/1001) FPS Standard : NTSC Color space : YUV Chroma subsampling : 4:2:0 Bit depth : 8 bits Scan type : Progressive Bits/(Pixel*Frame) : 0.217 Stream size : 7.47 GiB (96%) Language : English Default : Yes Forced : No Color range : Limited Color primaries : BT.709 Transfer characteristics : BT.709 Matrix coefficients : BT.709 Audio ID : 2 Format : E-AC-3 Format/Info : Enhanced AC-3 Commercial name : Dolby Digital Plus Codec ID : A_EAC3 Duration : 3 h 0 min Bit rate mode : Constant Bit rate : 224 kb/s Channel(s) : 2 channels Channel layout : L R Sampling rate : 48.0 kHz Frame rate : 31.250 FPS (1536 SPF) Compression mode : Lossy Stream size : 289 MiB (4%) Language : English Service kind : Complete Main Default : Yes Forced : No Text ID : 3 Format : UTF-8 Codec ID : S_TEXT/UTF8 Codec ID/Info : UTF-8 Plain Text Duration : 2 h 52 min Bit rate : 74 b/s Count of elements : 2153 Stream size : 94.1 KiB (0%) Title : SDH Language : English Default : No Forced : No
    [​IMG]
    [​IMG]
    [​IMG]
    [​IMG]
    [​IMG]
    [​IMG]
    [​IMG]
    [​IMG]

    Link fshare: The Gospel of John 2003 720p AMZN WEBRip DDP2.0 x264-TEPES (7.8 GB)
    Link phụ đề Việt: subscene

    Bản phụ đề Việt ngữ do josbau thực hiện rất tâm huyết, nhưng chỉ dành cho bản DVD không khớp thời gian với bản này. Mong bạn nào có thiện chí, đồng bộ lại phụ đề cho mọi người cùng xem.
     
    Chỉnh sửa cuối: 26/11/21
  2. Đang tải...


  3. ivy68

    ivy68 Huyền Thoại

    Tham gia ngày:
    29/3/09
    Bài viết:
    11,109
    Đã được cảm ơn:
    11,266
    Nơi ở:
    Hà Nội
    paulthanhson cảm ơn bài này.
  4. nguoihyhuu

    nguoihyhuu Active Member

    Tham gia ngày:
    16/2/11
    Bài viết:
    682
    Đã được cảm ơn:
    230
    Bạn paulthanhson ơi! Bạn còn lưu phim này không cho mình xin link với! Cảm ơn bạn rất nhiều.
     
  5. paulthanhson

    paulthanhson Well-Known Member

    Tham gia ngày:
    2/5/09
    Bài viết:
    686
    Đã được cảm ơn:
    7,695
    Reup link fshare (26/11/2021)
     
    nguoihyhuu cảm ơn bài này.
  6. nguoihyhuu

    nguoihyhuu Active Member

    Tham gia ngày:
    16/2/11
    Bài viết:
    682
    Đã được cảm ơn:
    230
    Mình tải được rồi! Cảm ơn bạn rất nhiều ạ
     
    paulthanhson cảm ơn bài này.

Chia sẻ trang này