[Torrent] Dragon Nest Warriors' Dawn 2014 ViE HD 720p DD 2.0 x264

Thảo luận trong 'Torrent Download' bắt đầu bởi lhx, 12/10/14.

  1. lhx

    lhx Well-Known Member

    Tham gia ngày:
    25/4/10
    Bài viết:
    1,532
    Đã được cảm ơn:
    5,808
    [​IMG]

    Mã:
    Video
    ID                                       : 1
    Format                                   : AVC
    
    
    	

    Format/Info : Advanced Video Codec

    Format profile : [email protected] Format settings, CABAC : Yes Format settings, ReFrames : 5 frames Codec ID : V_MPEG4/ISO/AVC Duration : 1h 30mn Bit rate : 2 500 Kbps Width : 1 280 pixels Height : 720 pixels Display aspect ratio : 16:9 Frame rate mode : Constant Frame rate : 24.000 fps Color space : YUV Chroma subsampling : 4:2:0 Bit depth : 8 bits Audio #1 ID : 2 Format : AC-3 Format/Info : Audio Coding 3 Mode extension : CM (complete main) Format settings, Endianness : Big Codec ID : A_AC3 Duration : 1h 30mn Bit rate mode : Constant Bit rate : 192 Kbps Channel(s) : 2 channels Channel positions : Front: L R Sampling rate : 48.0 KHz Bit depth : 16 bits Compression mode : Lossy Stream size : 124 MiB (7%) Language : Vietnamese Default : Yes Forced : No Audio #2 ID : 3 Format : AC-3 Format/Info : Audio Coding 3 Mode extension : CM (complete main) Format settings, Endianness : Big Codec ID : A_AC3 Duration : 1h 30mn Bit rate mode : Constant Bit rate : 192 Kbps Channel(s) : 2 channels Channel positions : Front: L R Sampling rate : 48.0 KHz Bit depth : 16 bits Compression mode : Lossy Stream size : 124 MiB (7%) Title : Mandarin Language : Chinese Default : No Forced : No
    [​IMG]

    [​IMG]

    [​IMG]

    [​IMG]

    [video=youtube;vbkA4a5N-Hc]https://www.youtube.com/watch?v=vbkA4a5N-Hc&feature=player_embedded[/video]

    Link tải phim
    Nhấn nút Cảm ơn (dưới chân bài) để thấy link!
     
    Chỉnh sửa cuối: 5/1/15
    Bibucom4k and haohmaru9318 like this.
  2. vitdua

    vitdua Active Member

    Tham gia ngày:
    15/8/11
    Bài viết:
    202
    Đã được cảm ơn:
    146
    Ðề: [Torrent] Dragon Nest Warriors' Dawn 2014 ViE HD 720p DD 2.0 x264

    Vẫn chưa có vietsub nhỉ?
     
  3. lhx

    lhx Well-Known Member

    Tham gia ngày:
    25/4/10
    Bài viết:
    1,532
    Đã được cảm ơn:
    5,808
    Ðề: [Torrent] Dragon Nest Warriors' Dawn 2014 ViE HD 720p DD 2.0 x264

    có audio viet rồi, cần chi sub nữa
     
  4. vitdua

    vitdua Active Member

    Tham gia ngày:
    15/8/11
    Bài viết:
    202
    Đã được cảm ơn:
    146
    Ðề: [Torrent] Dragon Nest Warriors' Dawn 2014 ViE HD 720p DD 2.0 x264

    Hèn gì. Dạo này khi làm việc toàn tắt loa nên cứ nghĩ là phim chưa có sub. Thanks bác nhé.
     
  5. sunrise1610

    sunrise1610 New Member

    Tham gia ngày:
    3/8/10
    Bài viết:
    1
    Đã được cảm ơn:
    0
    Ðề: [Torrent] Dragon Nest Warriors' Dawn 2014 ViE HD 720p DD 2.0 x264

    Mấy bác down xong hông giữ seed
     
  6. lhx

    lhx Well-Known Member

    Tham gia ngày:
    25/4/10
    Bài viết:
    1,532
    Đã được cảm ơn:
    5,808
    Ðề: [Torrent] Dragon Nest Warriors' Dawn 2014 ViE HD 720p DD 2.0 x264

    file vẫn còn nhiều seed mà
     
  7. filament

    filament New Member

    Tham gia ngày:
    1/8/12
    Bài viết:
    2
    Đã được cảm ơn:
    0
    link hỏng mất rồi bạn ơi
     
  8. lhx

    lhx Well-Known Member

    Tham gia ngày:
    25/4/10
    Bài viết:
    1,532
    Đã được cảm ơn:
    5,808
    Ðề: [Torrent] Dragon Nest Warriors' Dawn 2014 ViE HD 720p DD 2.0 x264

    cập nhật lại link
     
  9. kakauce

    kakauce Member

    Tham gia ngày:
    26/5/09
    Bài viết:
    132
    Đã được cảm ơn:
    4
    Ðề: [Torrent] Dragon Nest Warriors' Dawn 2014 ViE HD 720p DD 2.0 x264

    Hàng tàu sao ý các anh em
     
  10. lhx

    lhx Well-Known Member

    Tham gia ngày:
    25/4/10
    Bài viết:
    1,532
    Đã được cảm ơn:
    5,808
    Ðề: [Torrent] Dragon Nest Warriors' Dawn 2014 ViE HD 720p DD 2.0 x264

    hỏi thế là biết chưa đọc bài viết rồi
     
  11. sunnyhuu1

    sunnyhuu1 New Member

    Tham gia ngày:
    7/1/15
    Bài viết:
    25
    Đã được cảm ơn:
    55
    Ðề: [Torrent] Dragon Nest Warriors' Dawn 2014 ViE HD 720p DD 2.0 x264

    Ít dùng torrent, Bác chủ biết 4rum nào của nước ngoài mà nhiều phim không?? (torrent cũng okie)
     
  12. dinhthihue

    dinhthihue New Member

    Tham gia ngày:
    27/10/09
    Bài viết:
    26
    Đã được cảm ơn:
    4
    Ðề: [Torrent] Dragon Nest Warriors' Dawn 2014 ViE HD 720p DD 2.0 x264

    Link báo lỗi chủ thớt ơi! Ko download được?!
     
  13. lhx

    lhx Well-Known Member

    Tham gia ngày:
    25/4/10
    Bài viết:
    1,532
    Đã được cảm ơn:
    5,808
    Ðề: [Torrent] Dragon Nest Warriors' Dawn 2014 ViE HD 720p DD 2.0 x264

    file đã bị xóa, ko còn torrent để reup
     

Chia sẻ trang này