[Fshare] Toy Story 4 2019 1080p HDRip X264 - EVO | Câu chuyện đồ chơi 4

Thảo luận trong 'mHD, SD' bắt đầu bởi Anh YAM, 15/9/19.

Tags
  1. Anh YAM

    Anh YAM Uploader

    Tham gia ngày:
    5/1/19
    Bài viết:
    8,777
    Đã được cảm ơn:
    160,769
    Giới tính:
    Nam
    Toy Story 4 2019 1080p HDRip X264 - EVO
    FORMAT: MKV | SIZE: 10.4 GB


    Câu chuyện đồ chơi 4

    [​IMG]




    [​IMG]

    [​IMG]

    Câu chuyện đồ chơi 4 (Toy Story 4) là phim điện ảnh chiếu rạp hài hước mang phong cách hoạt hình 3D ra mắt năm 2019 tại Mỹ. Phim do hãng Pixar Animation Studios sản xuất, Walt Disney Pictures phát hành. Đây là phần 4 trong sê-ri Toy Story và là phần tiếp theo của Toy Story 3 (2010). Đạo diễn là Josh Cooley; biên kịch là Stephany Folsom, John Lasseter, Pete Docter, Andrew Stanton, và Lee Unkrich. Câu chuyện đồ chơi 4 là sự trở lại rất hào hứng của dàn đồ chơi quen thuộc như Woody, Buzz Lightyear, Jessie… cùng hai nhân vật mới sẽ xuất hiện trong Toy Story4: Ducky và Bunny!
    Trailer



    ------------------------------------------------

    Media Info [​IMG]

    General
    Unique ID : 249543010524930808668467434499803025756 (0xBBBC3C52C9D2E601ACAFEE5D2875915C)
    Complete name : C:\Users\Administrator\Downloads\Toy.Story.4.2019.1080p.HDRip.X264-EVO\Toy.Story.4.2019.1080p.HDRip.X264-EVO.mkv
    Format : Matroska
    Format version : Version 4
    File size : 10.4 GiB
    Duration : 1 h 39 min
    Overall bit rate : 15.0 Mb/s
    Movie name : EVO
    Encoded date : UTC 2019-09-15 11:16:07
    Writing application : mkvmerge v6.7.0 ('Back to the Ground') 64bit built on Jan 8 2014 15:10:52
    Writing library : libebml v1.3.0 + libmatroska v1.4.1
    Video
    ID : 1
    Format : AVC
    Format/Info : Advanced Video Codec
    Format profile : [email protected]
    Format settings : CABAC / 4 Ref Frames
    Format settings, CABAC : Yes
    Format settings, Reference frames : 4 frames
    Codec ID : V_MPEG4/ISO/AVC
    Duration : 1 h 39 min
    Bit rate : 15.1 Mb/s
    Width : 1 920 pixels
    Height : 800 pixels
    Display aspect ratio : 2.40:1
    Frame rate mode : Constant
    Frame rate : 23.976 (24000/1001) FPS
    Color space : YUV
    Chroma subsampling : 4:2:0
    Bit depth : 8 bits
    Scan type : Progressive
    Bits/(Pixel*Frame) : 0.410
    Stream size : 10.1 GiB (97%)



    Audio
    ID : 2
    Format : AC-3
    Format/Info : Audio Coding 3
    Commercial name : Dolby Digital
    Codec ID : A_AC3
    Duration : 1 h 39 min
    Bit rate mode : Constant
    Bit rate : 192 kb/s
    Channel(s) : 2 channels
    Channel layout : L R
    Sampling rate : 48.0 kHz
    Frame rate : 31.250 FPS (1536 SPF)
    Compression mode : Lossy
    Delay relative to video : -5 ms
    Stream size : 137 MiB (1%)
    Title : Stereo
    Language : English
    Service kind : Complete Main
    Default : Yes
    Forced : No
    Text
    ID : 3
    Format : UTF-8
    Codec ID : S_TEXT/UTF8
    Codec ID/Info : UTF-8 Plain Text
    Language : English
    Default : Yes
    Forced : No





    ------------------------------------------------

    Screenshot

    [​IMG]

    [​IMG]

    [​IMG]

    [​IMG]



    [​IMG] Download:

    FSHARE:

    Nhấn nút Cảm ơn (dưới chân bài) để thấy link!

    Nhấn nút Cảm ơn (dưới chân bài) để thấy link!

    SUB: https://subscene.com/subtitles/toy-story-4
     
    nscd, jokivo, kopkop and 30 others like this.
  2. Đang tải...


Chia sẻ trang này