[Fshare] [TVB 1992] Đại Thời Đại- Thời Đại Bố Già (WEB-DL 1080p, Audio USLT+ 2 Audio Chinese) 40 Tập

Thảo luận trong 'Phim bộ - Series' bắt đầu bởi Loxaz98, 20/10/21.

  1. Loxaz98

    Loxaz98 Well-Known Member

    Tham gia ngày:
    30/11/17
    Bài viết:
    124
    Đã được cảm ơn:
    1,007
    [​IMG]

    Quốc gia: Hồng Kông
    Thể loại: Xã Hội Đen, Cổ Phiếu
    Số Tập: 40 Tập

    Diễn Viên:
    -Trịnh Thiếu Thu

    -Lưu Thanh Vân

    -Lam Khiết Anh
    -Châu Huệ Mẫn
    -Lưu Tùng Nhân
    ...

    [​IMG]

    Mã:
    General
    
    
    Unique ID                   : 174831984259404169515607991565568333676 (0x83876A55D4D33BC2F26F8B820DEE576C)
    Complete name               : F:\phim\Đại Thời Đại (Thời Đại Bố Già) 1992 1080p\The.Greed.of.Man.1992.E01.TVB.WEB-DL.1080p.H264.AAC.2Audio-HDCTV (1).mkv
    Format                      : Matroska
    Format version              : Version 4
    File size                   : 1.25 GiB
    Duration                    : 44 min 42 s
    Overall bit rate mode       : Variable
    Overall bit rate            : 4 016 kb/s
    Encoded date                : UTC 2021-10-13 11:23:44
    Writing application         : mkvmerge v37.0.0 ('Leave It') 64-bit
    Writing library             : libebml v1.3.9 + libmatroska v1.5.2
    Video
    ID                          : 1
    Format                      : AVC
    Format/Info                 : Advanced Video Codec
    Format profile              : [email protected]
    Format settings             : CABAC / 4 Ref Frames
    Format settings, CABAC      : Yes
    Format settings, Reference  : 4 frames
    Codec ID                    : V_MPEG4/ISO/AVC
    Duration                    : 44 min 42 s
    Bit rate mode               : Variable
    Bit rate                    : 3 693 kb/s
    Maximum bit rate            : 3 872 kb/s
    Width                       : 1 440 pixels
    Original width              : 1 920 pixels
    Height                      : 1 080 pixels
    Display aspect ratio        : 16:9
    Frame rate mode             : Constant
    Frame rate                  : 25.000 FPS
    Color space                 : YUV
    Chroma subsampling          : 4:2:0
    Bit depth                   : 8 bits
    Scan type                   : Progressive
    Bits/(Pixel*Frame)          : 0.095
    Stream size                 : 1.15 GiB (92%)
    Writing library             : VOLO1.4.1
    Default                     : Yes
    Forced                      : No
    Audio #1
    ID                          : 2
    Format                      : MPEG Audio
    Format version              : Version 1
    Format profile              : Layer 3
    Codec ID                    : A_MPEG/L3
    Codec ID/Hint               : MP3
    Duration                    : 44 min 42 s
    Bit rate mode               : Constant
    Bit rate                    : 128 kb/s
    Channel(s)                  : 2 channels
    Sampling rate               : 44.1 kHz
    Frame rate                  : 38.281 FPS (1152 SPF)
    Compression mode            : Lossy
    Stream size                 : 40.9 MiB (3%)
    Title                       : USLT
    Language                    : Vietnamese
    Default                     : No
    Forced                      : No
    Audio #2
    ID                          : 3
    Format                      : AAC LC
    Format/Info                 : Advanced Audio Codec Low Complexity
    Codec ID                    : A_AAC-2
    Duration                    : 44 min 42 s
    Bit rate                    : 96.0 kb/s
    Channel(s)                  : 2 channels
    Channel layout              : L R
    Sampling rate               : 48.0 kHz
    Frame rate                  : 46.875 FPS (1024 SPF)
    Compression mode            : Lossy
    Stream size                 : 30.7 MiB (2%)
    Title                       : 普通话
    Language                    : Chinese
    Default                     : Yes
    Forced                      : No
    Audio #3
    ID                          : 4
    Format                      : AAC LC
    Format/Info                 : Advanced Audio Codec Low Complexity
    Codec ID                    : A_AAC-2
    Duration                    : 44 min 42 s
    Bit rate                    : 96.0 kb/s
    Channel(s)                  : 2 channels
    Channel layout              : L R
    Sampling rate               : 48.0 kHz
    Frame rate                  : 46.875 FPS (1024 SPF)
    Compression mode            : Lossy
    Stream size                 : 30.7 MiB (2%)
    Title                       : 粵語
    Language                    : Chinese
    Default                     : No
    Forced                      : No
    Text #1
    ID                          : 5
    Format                      : UTF-8
    Codec ID                    : S_TEXT/UTF8
    Codec ID/Info               : UTF-8 Plain Text
    Duration                    : 43 min 32 s
    Bit rate                    : 40 b/s
    Count of elements           : 639
    Stream size                 : 12.8 KiB (0%)
    Title                       : 中文(简体)
    Language                    : Chinese
    Default                     : Yes
    Forced                      : No
    Text #2
    ID                          : 6
    Format                      : UTF-8
    Codec ID                    : S_TEXT/UTF8
    Codec ID/Info               : UTF-8 Plain Text
    Duration                    : 43 min 32 s
    Bit rate                    : 40 b/s
    Count of elements           : 639
    Stream size                 : 12.8 KiB (0%)
    Title                       : 中文(繁體)
    Language                    : Chinese
    Default                     : No
    Forced                      : No
    
    Cảm ơn Raw từ bác adm820 chia sẻ!

    Link Download
    Nhấn nút Cảm ơn (dưới chân bài) để thấy link!
     
  2. Đang tải...


  3. trantuandat

    trantuandat New Member

    Tham gia ngày:
    20/10/21
    Bài viết:
    1
    Đã được cảm ơn:
    0
    Giới tính:
    Nam
    tks ban đã chia sẽ
     
  4. trunksmonster7

    trunksmonster7 Member

    Tham gia ngày:
    30/8/21
    Bài viết:
    55
    Đã được cảm ơn:
    12
    Giới tính:
    Nam
    quá đã. Thanks
     

Chia sẻ trang này