[Fshare] [TVB 1997] Thiên Long Bát Bộ (WEB-DL 1080p, 5 Audio USLT+FFVN+HTV2+2Audio Chinese) 45 Tập

Thảo luận trong 'Phim bộ - Series' bắt đầu bởi Loxaz98, 21/10/21.

  1. Loxaz98

    Loxaz98 Well-Known Member

    Tham gia ngày:
    30/11/17
    Bài viết:
    124
    Đã được cảm ơn:
    1,007
    [​IMG]
    Quốc gia: Hồng Kông
    Thể loại: Cổ Trang, Kiếm Hiệp
    Số Tập: 45 Tập

    Diễn Viên:

    • Huỳnh Nhật Hoa vai Kiều Phong (Tiêu Phong)
    • Trần Hạo Dân vai Đoàn Dự
    • Phàn Thiếu Hoàng vai Hư Trúc
    • Trương Quốc Cường vai Mộ Dung Phục
    • Lý Nhược Đồng vai Vương Ngữ Yên
    • ...
    [​IMG]

    Mã:
    General
    Unique ID                   : 177864552266438132409381845320292988701 (0x85CF777B52764D1BFFC3301D7279771D)
    Complete name               : F:\phim\Thiên Long Bát Bộ 1997\Eightfold.Path.of.the.Heavenly.Dragon.1997.E10.TVB.WEB-DL.1080p.H264.AAC.2Audio-HDCTV (1).mkv
    Format                      : Matroska
    Format version              : Version 4
    File size                   : 1.35 GiB
    Duration                    : 44 min 34 s
    Overall bit rate mode       : Variable
    Overall bit rate            : 4 323 kb/s
    Encoded date                : UTC 2021-10-20 14:12:24
    Writing application         : mkvmerge v37.0.0 ('Leave It') 64-bit
    Writing library             : libebml v1.3.9 + libmatroska v1.5.2
    Video
    ID                          : 1
    Format                      : AVC
    Format/Info                 : Advanced Video Codec
    Format profile              : [email protected]
    Format settings             : CABAC / 4 Ref Frames
    Format settings, CABAC      : Yes
    Format settings, Reference  : 4 frames
    Codec ID                    : V_MPEG4/ISO/AVC
    Duration                    : 44 min 34 s
    Bit rate mode               : Variable
    Bit rate                    : 3 675 kb/s
    Maximum bit rate            : 3 872 kb/s
    Width                       : 1 440 pixels
    Original width              : 1 920 pixels
    Height                      : 1 080 pixels
    Display aspect ratio        : 16:9
    Frame rate mode             : Constant
    Frame rate                  : 25.000 FPS
    Color space                 : YUV
    Chroma subsampling          : 4:2:0
    Bit depth                   : 8 bits
    Scan type                   : Progressive
    Bits/(Pixel*Frame)          : 0.095
    Stream size                 : 1.14 GiB (85%)
    Writing library             : VOLO1.4.1
    Default                     : Yes
    Forced                      : No
    Audio #1
    ID                          : 2
    Format                      : MPEG Audio
    Format version              : Version 1
    Format profile              : Layer 3
    Codec ID                    : A_MPEG/L3
    Codec ID/Hint               : MP3
    Duration                    : 44 min 34 s
    Bit rate mode               : Constant
    Bit rate                    : 128 kb/s
    Channel(s)                  : 2 channels
    Sampling rate               : 44.1 kHz
    Frame rate                  : 38.281 FPS (1152 SPF)
    Compression mode            : Lossy
    Stream size                 : 40.8 MiB (3%)
    Title                       : USLT
    Language                    : Vietnamese
    Default                     : No
    Forced                      : No
    Audio #2
    ID                          : 3
    Format                      : AAC LC
    Format/Info                 : Advanced Audio Codec Low Complexity
    Codec ID                    : A_AAC-2
    Duration                    : 44 min 34 s
    Bit rate                    : 132 kb/s
    Channel(s)                  : 2 channels
    Channel layout              : L R
    Sampling rate               : 44.1 kHz
    Frame rate                  : 43.066 FPS (1024 SPF)
    Compression mode            : Lossy
    Stream size                 : 41.8 MiB (3%)
    Title                       : FFVN
    Language                    : Vietnamese
    Default                     : No
    Forced                      : No
    Audio #3
    ID                          : 4
    Format                      : MPEG Audio
    Format version              : Version 1
    Format profile              : Layer 3
    Codec ID                    : A_MPEG/L3
    Codec ID/Hint               : MP3
    Duration                    : 44 min 34 s
    Bit rate mode               : Constant
    Bit rate                    : 192 kb/s
    Channel(s)                  : 2 channels
    Sampling rate               : 44.1 kHz
    Frame rate                  : 38.281 FPS (1152 SPF)
    Compression mode            : Lossy
    Stream size                 : 61.2 MiB (4%)
    Title                       : HTV2
    Language                    : Vietnamese
    Default                     : No
    Forced                      : No
    Audio #4
    ID                          : 5
    Format                      : AAC LC
    Format/Info                 : Advanced Audio Codec Low Complexity
    Codec ID                    : A_AAC-2
    Duration                    : 44 min 34 s
    Bit rate                    : 96.0 kb/s
    Channel(s)                  : 2 channels
    Channel layout              : L R
    Sampling rate               : 48.0 kHz
    Frame rate                  : 46.875 FPS (1024 SPF)
    Compression mode            : Lossy
    Stream size                 : 30.6 MiB (2%)
    Title                       : 普通话
    Language                    : Chinese
    Default                     : Yes
    Forced                      : No
    Audio #5
    ID                          : 6
    Format                      : AAC LC
    Format/Info                 : Advanced Audio Codec Low Complexity
    Codec ID                    : A_AAC-2
    Duration                    : 44 min 34 s
    Bit rate                    : 96.0 kb/s
    Channel(s)                  : 2 channels
    Channel layout              : L R
    Sampling rate               : 48.0 kHz
    Frame rate                  : 46.875 FPS (1024 SPF)
    Compression mode            : Lossy
    Stream size                 : 30.6 MiB (2%)
    Title                       : 粵語
    Language                    : Chinese
    Default                     : No
    Forced                      : No
    Text #1
    ID                          : 7
    Format                      : UTF-8
    Codec ID                    : S_TEXT/UTF8
    Codec ID/Info               : UTF-8 Plain Text
    Duration                    : 41 min 56 s
    Bit rate                    : 51 b/s
    Count of elements           : 590
    Stream size                 : 15.7 KiB (0%)
    Title                       : 中文(简体)
    Language                    : Chinese
    Default                     : Yes
    Forced                      : No
    Text #2
    ID                          : 8
    Format                      : UTF-8
    Codec ID                    : S_TEXT/UTF8
    Codec ID/Info               : UTF-8 Plain Text
    Duration                    : 41 min 56 s
    Bit rate                    : 51 b/s
    Count of elements           : 590
    Stream size                 : 15.7 KiB (0%)
    Title                       : 中文(繁體)
    Language                    : Chinese
    Default                     : No
    Forced                      : No
    
    Cảm ơn Raw từ bác adm820 chia sẻ!

    Link Download
    Nhấn nút Cảm ơn (dưới chân bài) để thấy link!

     
    Chỉnh sửa cuối: 16/11/21
  2. Đang tải...


  3. quysauruoua409

    quysauruoua409 Member

    Tham gia ngày:
    29/5/13
    Bài viết:
    64
    Đã được cảm ơn:
    48
    Giới tính:
    Nam
    Thank ad
     
  4. kyuctuoitho

    kyuctuoitho New Member

    Tham gia ngày:
    1/10/21
    Bài viết:
    9
    Đã được cảm ơn:
    1
    Giới tính:
    Nam
    Bản này với bản 2008 là hay nhất rồi
     
  5. vfrank

    vfrank Active Member

    Tham gia ngày:
    21/5/19
    Bài viết:
    181
    Đã được cảm ơn:
    60
    Giới tính:
    Nam
    Toàn bản chất lượng ra liên tục. Ko biết tiếp theo sẽ là bộ nào?
     
  6. spirou

    spirou Active Member

    Tham gia ngày:
    14/10/09
    Bài viết:
    127
    Đã được cảm ơn:
    111
    Bạn cho mình xin lại tập 40 dạng RAR vì tập 40 trong folder bị lỗi Fshare server.

    Cám ơn bạn nhiều!
     
  7. Loxaz98

    Loxaz98 Well-Known Member

    Tham gia ngày:
    30/11/17
    Bài viết:
    124
    Đã được cảm ơn:
    1,007
    Mình reup tập 40 trên bài viết rồi đó bạn
     
  8. tropng81

    tropng81 Active Member

    Tham gia ngày:
    1/2/13
    Bài viết:
    295
    Đã được cảm ơn:
    26
    Thanks bác
     

Chia sẻ trang này