[Viễn tưởng|Series|1080p} Trọn bộ Transformers (2007-2018) - Robot đại chiến - 6 phần

Thảo luận trong 'Fshare.vn' bắt đầu bởi Ng-Bin, 30/5/20.

  1. Ng-Bin

    Ng-Bin Well-Known Member

    Tham gia ngày:
    20/4/20
    Bài viết:
    118
    Đã được cảm ơn:
    2,744
    Giới tính:
    Nam
    TRỌN BỘ TRANSFORMERS (2007-2018) - 6 phần
    ROBOT ĐẠI CHIẾN

    Audio: English + Vietnamese-TM -> Mux sẵn
    Phụ đề: English + Vietnamese -> Mux sẵn


    [​IMG]

    GIỚI THIỆU

    1. Robot đại chiến[4] (tựa gốc tiếng Anh: Transformers) là phim điện ảnh hành độngkhoa học viễn tưởng của Mỹ năm 2007 dựa trên dòng đồ chơi cùng tên của Hasbro. Kết giữa hoạt hình máy tính và ghi hình người đóng, phim do Michael Bay đạo diễn với Steven Spielberg đảm nhiệm vị trí giám đốc sản xuất, đồng thời do Don Murphy và Tom DeSanto chịu trách nhiệm sản xuất. Đây là phần đầu tiên trong loạt phim điện ảnh Transformers. Phim có sự tham gia diễn xuất của Shia LaBeouf vai Sam Witwicky, một cậu thiếu niên bị cuốn vào cuộc chiến sống còn giữa phe chính diện Autobot và phe phản diện Decepticon; hai thế lực robot ngoài hành tinh này có thể tự ngụy trang bằng cách biến hình thành các loại máy móc hàng ngày, trong đó chủ yếu là xe cộ. Phim còn có sự tham gia của Tyrese Gibson, Josh Duhamel, Anthony Anderson, Megan Fox, Rachael Taylor, John Turturro và Jon Voight, trong khi các diễn viên lồng tiếng là Peter Cullen và Hugo Weaving lần lượt lồng tiếng Optimus Prime và Megatron. Phim từng khởi chiếu vào ngày 24 tháng 8 năm 2007 tại Việt Nam.

    2. Transformers: Bại binh phục hận (tiếng Anh: Transformers: Revenge of the Fallen) là phần tiếp theo của bộ phim Transformers. Transformer 2 là một siêu phẩm điện ảnhMỹ, được công chiếu trên toàn thế giới vào mùa hè năm 2009. Phim được Ehren Kruger, Alex Kurtzman, Roberto Orci biên kịch và Michael Bayđạo diễn.

    3.Transformers 3[6] (tên gốc tiếng Anh Transformers: Dark of the Moon) (tạm dịch: Robot Đại Chiến: Vùng Tối Của Mặt Trăng) là một phim điện ảnh hành động khoa học viễn tưởng của Mỹ năm 2011 do Michael Bay đạo diễn dựa trên dòng đồ chơi cùng tên của công ty Hasbro. Đây là phần phim thứ ba trong loạt phim Transformers, và là phần tiếp theo của phim điện ảnh Transformers: Bại binh phục hận công chiếu năm 2009. Đây cũng là phần đầu tiên trong loạt phim hãng DreamWorks không tham gia đồng sản xuất. Transformers 3 có sự tham gia diễn xuất của Shia LaBeouf, Josh Duhamel, John Turturro, Tyrese Gibson, Rosie Huntington-Whiteley, Patrick Dempsey, Kevin Dunn, Julie White, John Malkovich và Frances McDormand. Phim đặt mốc thời gian ba năm sau những sự kiện của Bại binh phục hận, kể lại cuộc chiến giữa các Autobot và Decepticon nhằm chiếm lấy thứ công nghệ tối tân từ quê nhà của chúng.

    4.Transformers: Kỷ nguyên hủy diệt (tựa tiếng Anh là Transformers: Age of Extinction) là một bộ phim 3D hành động khoa học viễn tưởng năm 2014 thuộc sản phẩm thương mại Transformers. Đây là phần thứ tư của loạt phim đình đám Transformers. Đây là phần tiếp theo của phim Vùng tối của mặt trăng năm 2011, bối cảnh diễn ra sau cuộc đại chiến ở Chicago. Cũng giống như các phần trước, phim do Michael Bay đạo diễn và Ehren Kruger viết kịch bản, với Steven Spielberg và Bay làm giám đốc sản xuất. Phim có sự tham gia của ngôi sao Mark Wahlberg và Peter Cullen với vai trò lồng tiếng cho nhân vật người máy Optimus Prime. Đây là phần đầu tiên trong loạt phim không đề cập đến các nhân vật người từ ba phần trước, thay vào đó là dàn nhân vật người mới cùng với 22 Transformer mới, bao gồm cả những Dinobot lần đầu xuất hiện trong loạt phim. Tuy nhiên phim vẫn có sự góp mặt của các Transformer cũ như Optimus Prime, Bumblebee, Ratchet, Leadfoot, Brains và Megatron (trong phần này lấy tên là Galvatron). Phim được công chiếu vào ngày 27-6-2014 dưới định dạng 3D và IMAX.

    5.Transformers: Chiến binh cuối cùng (tên gốc tiếng Anh: Transformers: The Last Knight) là một phim điện ảnh hành động khoa học viễn tưởng của Mỹ năm 2017. Đây là phần phim thứ năm của loạt phim Transformers và là phần tiếp theo của phim điện ảnh Transformers 4: Kỷ nguyên hủy diệt. Vẫn do Michael Bay đạo diễn, Transformers: Chiến binh cuối cùng có sự trở lại của nam diễn viên Mark Wahlberg, người đóng vai nhân vật chính Cade Yeager trong phần bốn, cùng với Josh Duhamel, John Turturro và Glenn Morshower quay lại với các vai diễn cũ trong ba phần phim đầu, và Laura Haddock, Anthony Hopkins là các diễn viên mới xuất hiện trong phần phim. Qua các bài phỏng vấn, Bay và Wahlberg đều công bố rằng cả hai người sẽ không trở lại trong phần phim tiếp theo.

    6.Bumblebee là phim điện ảnh khoa học viễn tưởng của Mỹ năm 2018 tập trung vào nhân vật cùng tên của thương hiệu Transformers. Đây là phần phim thứ sáu của loạt phim người đóngTransformers và đồng thời cũng là phần tiền truyện của bộ phim Transformers năm 2007. Bumblebee do Travis Knight đạo diễn và Christina Hodson biên kịch, với sự tham gia diễn xuất của Hailee Steinfeld, John Cena, Jorge Lendeborg Jr., John Ortiz, Jason Drucker và Pamela Adlon. Đây cũng là phần phim Transformers đầu tiên mà Michael Bay không nhận vị trí đạo diễn, dù vậy ông vẫn đảm nhiệm vai trò nhà sản xuất cho phim.

    Nguồn: wikipedia
    INFORMATION
    Mã:
    [/LEFT]
    
    
    General
    Unique ID                   : 223152214887130427760412902530313940389 (0xA7E18DA3CE9568A0921B0D7245F8EDA5)
    Complete name               : Transformers.Revenge.of.the.Fallen.2009.ViE.IMAX.Edition.1080p.Bluray.DTS.x264-D-Z0N3.Ng-Bin.mkv
    Format                      : Matroska
    Format version              : Version 4
    File size                   : 20.6 GiB
    Duration                    : 2 h 30 min
    Overall bit rate            : 19.6 Mb/s
    Movie name                  : Transformers: Revenge of the Fallen (2009) - Bại binh phục hận (Ng-Bin)
    Encoded date                : UTC 2020-05-27 13:11:15
    Writing application         : mkvmerge v45.0.0 ('Heaven in Pennies') 64-bit
    Writing library             : libebml v1.3.10 + libmatroska v1.5.2
    Cover                       : Yes
    Attachments                 : cover.jpg
    Video
    ID                          : 1
    Format                      : AVC
    Format/Info                 : Advanced Video Codec
    Format profile              : [email protected]
    Format settings             : CABAC / 4 Ref Frames
    Format settings, CABAC      : Yes
    Format settings, ReFrames   : 4 frames
    Codec ID                    : V_MPEG4/ISO/AVC
    Duration                    : 2 h 30 min
    Bit rate                    : 15.1 Mb/s
    Width                       : 1 920 pixels
    Height                      : 1 080 pixels
    Display aspect ratio        : 16:9
    Frame rate mode             : Constant
    Frame rate                  : 23.976 FPS
    Color space                 : YUV
    Chroma subsampling          : 4:2:0
    Bit depth                   : 8 bits
    Scan type                   : Progressive
    Bits/(Pixel*Frame)          : 0.304
    Stream size                 : 15.9 GiB (77%)
    Title                       : x264-D-Z0N3
    Writing library             : x264 core 78 r1301M bcba15d
    Encoding settings           : cabac=1 / ref=4 / deblock=1:-3:-3 / analyse=0x3:0x113 / me=umh / subme=10 / psy=1 / psy_rd=1.0:0.0 / mixed_ref=1 / me_range=64 / chroma_me=1 / trellis=2 / 8x8dct=1 / cqm=0 / deadzone=21,11 / chroma_qp_offset=-2 / threads=6 / nr=0 / decimate=0 / mbaff=0 / constrained_intra=0 / bframes=16 / b_pyramid=0 / b_adapt=2 / b_bias=0 / direct=3 / wpredb=1 / keyint=250 / keyint_min=25 / scenecut=40 / rc_lookahead=60 / rc=2pass / mbtree=1 / bitrate=15103 / ratetol=1.0 / qcomp=0.60 / qpmin=10 / qpmax=51 / qpstep=4 / cplxblur=20.0 / qblur=0.5 / vbv_maxrate=50000 / vbv_bufsize=50000 / ip_ratio=1.40 / aq=1:0.70
    Default                     : Yes
    Forced                      : No
    Audio #1
    ID                          : 2
    Format                      : DTS
    Format/Info                 : Digital Theater Systems
    Codec ID                    : A_DTS
    Duration                    : 2 h 30 min
    Bit rate mode               : Constant
    Bit rate                    : 1 510 kb/s
    Channel(s)                  : 6 channels
    Channel layout              : C L R Ls Rs LFE
    Sampling rate               : 48.0 kHz
    Frame rate                  : 93.750 FPS (512 SPF)
    Bit depth                   : 24 bits
    Compression mode            : Lossy
    Stream size                 : 1.59 GiB (8%)
    Title                       : English
    Language                    : English
    Default                     : Yes
    Forced                      : No
    Audio #2
    ID                          : 3
    Format                      : DTS
    Format/Info                 : Digital Theater Systems
    Codec ID                    : A_DTS
    Duration                    : 2 h 30 min
    Bit rate mode               : Constant
    Bit rate                    : 1 509 kb/s
    Channel(s)                  : 6 channels
    Channel layout              : C L R Ls Rs LFE
    Sampling rate               : 48.0 kHz
    Frame rate                  : 93.750 FPS (512 SPF)
    Bit depth                   : 24 bits
    Compression mode            : Lossy
    Stream size                 : 1.59 GiB (8%)
    Title                       : Vietnamese VAV
    Language                    : Vietnamese
    Default                     : No
    Forced                      : No
    Audio #3
    ID                          : 4
    Format                      : DTS
    Format/Info                 : Digital Theater Systems
    Codec ID                    : A_DTS
    Duration                    : 2 h 30 min
    Bit rate mode               : Constant
    Bit rate                    : 1 510 kb/s
    Channel(s)                  : 6 channels
    Channel layout              : C L R Ls Rs LFE
    Sampling rate               : 48.0 kHz
    Frame rate                  : 93.750 FPS (512 SPF)
    Bit depth                   : 24 bits
    Compression mode            : Lossy
    Stream size                 : 1.59 GiB (8%)
    Title                       : Vietnamese HDAT
    Language                    : Vietnamese
    Default                     : No
    Forced                      : No
    Text #1
    ID                          : 5
    Format                      : UTF-8
    Codec ID                    : S_TEXT/UTF8
    Codec ID/Info               : UTF-8 Plain Text
    Duration                    : 2 h 22 min
    Bit rate                    : 88 b/s
    Count of elements           : 1840
    Stream size                 : 92.0 KiB (0%)
    Title                       : Vietnamese
    Language                    : Vietnamese
    Default                     : Yes
    Forced                      : No
    Text #2
    ID                          : 6
    Format                      : UTF-8
    Codec ID                    : S_TEXT/UTF8
    Codec ID/Info               : UTF-8 Plain Text
    Duration                    : 2 h 22 min
    Bit rate                    : 68 b/s
    Count of elements           : 1847
    Stream size                 : 71.7 KiB (0%)
    Title                       : English
    Language                    : English
    Default                     : No
    Forced                      : No
    Text #3
    ID                          : 7
    Format                      : UTF-8
    Codec ID                    : S_TEXT/UTF8
    Codec ID/Info               : UTF-8 Plain Text
    Duration                    : 2 h 21 min
    Bit rate                    : 78 b/s
    Count of elements           : 2108
    Stream size                 : 81.9 KiB (0%)
    Language                    : Turkish
    Default                     : No
    Forced                      : No
    Text #4
    ID                          : 8
    Format                      : UTF-8
    Codec ID                    : S_TEXT/UTF8
    Codec ID/Info               : UTF-8 Plain Text
    Duration                    : 2 h 28 min
    Bit rate                    : 68 b/s
    Count of elements           : 1863
    Stream size                 : 74.3 KiB (0%)
    Language                    : German
    Default                     : No
    Forced                      : No
    Text #5
    ID                          : 9
    Format                      : UTF-8
    Codec ID                    : S_TEXT/UTF8
    Codec ID/Info               : UTF-8 Plain Text
    Duration                    : 2 h 22 min
    Bit rate                    : 62 b/s
    Count of elements           : 1809
    Stream size                 : 65.5 KiB (0%)
    Language                    : Portuguese
    Default                     : No
    Forced                      : No
    Text #6
    ID                          : 10
    Format                      : UTF-8
    Codec ID                    : S_TEXT/UTF8
    Codec ID/Info               : UTF-8 Plain Text
    Duration                    : 2 h 29 min
    Bit rate                    : 42 b/s
    Count of elements           : 1745
    Stream size                 : 46.6 KiB (0%)
    Language                    : Czech
    Default                     : No
    Forced                      : No
    Text #7
    ID                          : 11
    Format                      : UTF-8
    Codec ID                    : S_TEXT/UTF8
    Codec ID/Info               : UTF-8 Plain Text
    Duration                    : 2 h 22 min
    Bit rate                    : 59 b/s
    Count of elements           : 1332
    Stream size                 : 61.6 KiB (0%)
    Language                    : Swedish
    Default                     : No
    Forced                      : No
    [LEFT]


    DOWNLOAD
    Nhấn nút Cảm ơn (dưới chân bài) để thấy link!


    ==> Trọn bộ 22+ phim của PIXAR (1995-2020)

    ==> Trọn bộ 22+ phim của STUDIO GHIBLI (1984-2014)

    ==> Tom and Jerry Collection (1940-1967) - 161 tập


    ==> Trọn bộ Johnny English (2003-2018) - Điệp viên không không thấy

    Các bạn download, bình luận góp ý, trao đổi vui vẻ nhé. Cảm ơn các bạn đã xem bài
    ------------------------------------------------------------------------------------------------------------------------------------------------------------------------

    PHIM TUYỂN CHỌN
    https://www.fshare.vn/folder/2CCDLLXMZWBI
     
    Chỉnh sửa cuối: 19/7/21
    recnac, nicolai89, Mr. Teo and 560 others like this.
  2. Đang tải...


  3. maihaclau9

    maihaclau9 Active Member

    Tham gia ngày:
    27/2/12
    Bài viết:
    133
    Đã được cảm ơn:
    47
  4. dragon_war

    dragon_war Active Member

    Tham gia ngày:
    27/6/14
    Bài viết:
    160
    Đã được cảm ơn:
    57
    Ngon quá, cần lắm 1 người gom hết vào như bác.
     
    Vantinh1604 and Ng-Bin like this.
  5. lequynhan

    lequynhan Well-Known Member

    Tham gia ngày:
    25/2/12
    Bài viết:
    8,114
    Đã được cảm ơn:
    4,916
    Giới tính:
    Nam
    Nghề nghiệp:
    IT
    Nơi ở:
    Hưng Yên
    :) Em cảm ơn bác Bin nhiều

    Em mạn phép bác Bin up thêm file Thuyết Minh cho bản 2009. :D Rất mong bác Bin cho phép. Nếu không mong Bác báo em delete.

    Film: Transformers.Revenge.of.the.Fallen.2009.UHD.BluRay.2160p.TrueHD.Atmos.7.1.HEVC.REMUX-FraMeSToR
    Sub .srt chuẩn để xem trên tivi không hỗ trợ sub film gốc: https://www.fshare.vn/file/3BYPEJ76WRVU
    Thuyết minh được lấy từ bản 1080p em đã Edit cắt xén và test thấy tàm tạm (Mong các Bác sài tạm khi chưa tìm được bản chuẩn):
    https://www.fshare.vn/file/VGAT2I3KDV2B

    Các Bác down về thì dùng MKVToolNix GUI mix lại nhé.
    Nguồn đều ở trong link Fshare bác Bin đã share.
     
    Chỉnh sửa cuối: 26/6/20
  6. ahipsa

    ahipsa Well-Known Member

    Tham gia ngày:
    24/2/19
    Bài viết:
    2,006
    Đã được cảm ơn:
    1,427
    Giới tính:
    Nam
    Nghề nghiệp:
    SINH VIÊN
    Nơi ở:
    BÌNH DƯƠNG
    Cảm ơn bác nhé :p
     
    Vantinh1604 and Ng-Bin like this.
  7. Ng-Bin

    Ng-Bin Well-Known Member

    Tham gia ngày:
    20/4/20
    Bài viết:
    118
    Đã được cảm ơn:
    2,744
    Giới tính:
    Nam
    4K, Remux ít người tải nên link die rồi. Có thời gian mình sẽ reup lại
     
  8. love_alone159

    love_alone159 New Member

    Tham gia ngày:
    1/2/10
    Bài viết:
    9
    Đã được cảm ơn:
    5
    Bạn ơi, link film 2007 bị lỗi không down được, bạn check lại giúp mình nha,
    [​IMG]
     
    Vantinh1604 cảm ơn bài này.
  9. Ng-Bin

    Ng-Bin Well-Known Member

    Tham gia ngày:
    20/4/20
    Bài viết:
    118
    Đã được cảm ơn:
    2,744
    Giới tính:
    Nam
    Do Fshare check bản quyền đó bạn. Mình đã fix lại rồi, bạn vào tải lại nhé
     
    love_alone159 cảm ơn bài này.
  10. love_alone159

    love_alone159 New Member

    Tham gia ngày:
    1/2/10
    Bài viết:
    9
    Đã được cảm ơn:
    5
    Cảm ơn bạn, link đã cho tải lại ok rồi.
     
    Ng-Bin cảm ơn bài này.
  11. htpcomputer

    htpcomputer Member

    Tham gia ngày:
    15/1/11
    Bài viết:
    51
    Đã được cảm ơn:
    36
    Bản 2007 lại die rồi bạn, bạn reup lại nha. Thanks!
     
  12. Ng-Bin

    Ng-Bin Well-Known Member

    Tham gia ngày:
    20/4/20
    Bài viết:
    118
    Đã được cảm ơn:
    2,744
    Giới tính:
    Nam
    Mình mới fix lại rồi đó, Thàng Fshare nó chơi nhây vãi
     
    htpcomputer cảm ơn bài này.
  13. duykhanh1810

    duykhanh1810 Active Member

    Tham gia ngày:
    27/3/13
    Bài viết:
    210
    Đã được cảm ơn:
    30
    Nghề nghiệp:
    Manager
    Nơi ở:
    Lucern - Switzerland
    hay quá cảm ơn bác đang cần down lại bản đẹp bộ này
     
  14. Lê Bảo Linh

    Lê Bảo Linh New Member

    Tham gia ngày:
    14/10/21
    Bài viết:
    1
    Đã được cảm ơn:
    0
    Giới tính:
    Nam
    thanks!!!
     
  15. hdtk234

    hdtk234 New Member

    Tham gia ngày:
    4/2/12
    Bài viết:
    6
    Đã được cảm ơn:
    0
    kể mà có 4k thì tốt biết bao! cảm ơn bạn!
     

Chia sẻ trang này