[Fshare] Vincenzo 4K ViE UHDTV AAC/AC-3 H.265 - APPLETOR

Thảo luận trong 'Phim bộ - Series' bắt đầu bởi lostoneakai, 20/11/21.

  1. lostoneakai

    lostoneakai Well-Known Member

    Tham gia ngày:
    28/2/20
    Bài viết:
    530
    Đã được cảm ơn:
    290
    Giới tính:
    Nam
    Vincenzo 4K ViE UHDTV AAC/AC-3 H.265 - APPLETOR
    (THUYẾT MINH)

    [​IMG]

    Vincenzo xoay quanh câu chuyện về luật sư Vincenzo Cassano, một mafia vốn là luật sư cố vấn cho ông trùm băng đảng khét tiếng tại Ý.

    Vincenzo là người Hàn nhưng bị bỏ rơi từ năm 8 tuổi và sống tại Ý suốt phần đời còn lại cho đến khi phải trở về Hàn vì một phi vụ lớn.

    Mã:
    Format                                   : Matroska
    Format version                           : Version 4
    File size                                : 17.9 GiB
    Duration                                 : 1 h 23 min
    Overall bit rate                         : 30.7 Mb/s
    Video
    ID                                       : 1
    Format                                   : HEVC
    Format/Info                              : High Efficiency Video Coding
    
    
    Format profile                           : Main [email protected]@Main
    Codec ID                                 : V_MPEGH/ISO/HEVC
    Duration                                 : 1 h 23 min
    Bit rate                                 : 30.1 Mb/s
    Width                                    : 3 840 pixels
    Height                                   : 2 160 pixels
    Display aspect ratio                     : 16:9
    Frame rate mode                          : Constant
    Frame rate                               : 59.940 FPS
    Color space                              : YUV
    Chroma subsampling                       : 4:2:0
    Bit depth                                : 10 bits
    Bits/(Pixel*Frame)                       : 0.061
    Stream size                              : 17.5 GiB (98%)
    Default                                  : Yes
    Forced                                   : No
    Audio #1
    ID                                       : 2
    Format                                   : AC-3
    Format/Info                              : Audio Coding 3
    Commercial name                          : Dolby Digital
    Codec ID                                 : A_AC3
    Duration                                 : 1 h 23 min
    Bit rate mode                            : Constant
    Bit rate                                 : 192 kb/s
    Channel(s)                               : 2 channels
    Channel layout                           : L R
    Sampling rate                            : 48.0 kHz
    Frame rate                               : 31.250 FPS (1536 SPF)
    Compression mode                         : Lossy
    Delay relative to video                  : -399 ms //Vui lòng chỉnh delay thành +399 ms
    Stream size                              : 114 MiB (1%)
    Title                                    : Thuyết minh Việt
    Language                                 : Vietnamese
    Service kind                             : Complete Main
    Default                                  : Yes
    Forced                                   : Yes
    Audio #2
    ID                                       : 3
    Format                                   : AAC LC
    Format/Info                              : Advanced Audio Codec Low Complexity
    Codec ID                                 : A_AAC-2
    Duration                                 : 1 h 23 min
    Bit rate                                 : 384 kb/s
    Channel(s)                               : 2 channels
    Channel layout                           : L R
    Sampling rate                            : 48.0 kHz
    Frame rate                               : 46.875 FPS (1024 SPF)
    Compression mode                         : Lossy
    Delay relative to video                  : 52 ms
    Stream size                              : 227 MiB (1%)
    Title                                    : Tiếng Hàn Quốc
    Language                                 : Korean
    Default                                  : No
    Forced                                   : No
    

    LINK TẢI:

    HTML:
    https://www.fshare.vn/folder/T7BLT4R9QKF6
    https://www.fshare.vn/folder/HVOH51DGZA6S


    CẬP NHẬT: 20/20

     
    Chỉnh sửa cuối: 6/12/21
    kienlovess and aris44 like this.
  2. Zhao Lusi

    Zhao Lusi Well-Known Member

    Tham gia ngày:
    10/11/21
    Bài viết:
    1,359
    Đã được cảm ơn:
    3,776
    Giới tính:
    Nam
    Cần em sync phụ đề phụ không bác, đỉnh cao. Bác share file audio giúp em được không?
     
  3. lostoneakai

    lostoneakai Well-Known Member

    Tham gia ngày:
    28/2/20
    Bài viết:
    530
    Đã được cảm ơn:
    290
    Giới tính:
    Nam
    Các file raw audio sync làm xong mình xóa luôn.
     
  4. Zhao Lusi

    Zhao Lusi Well-Known Member

    Tham gia ngày:
    10/11/21
    Bài viết:
    1,359
    Đã được cảm ơn:
    3,776
    Giới tính:
    Nam
    :(:(:(:(
    sao k ai giống em, từ sub đến raw, đến audio em đều lưu. raw lưu đám mây, còn sub, audio lưu hdd :D:D:D:D
     
  5. lostoneakai

    lostoneakai Well-Known Member

    Tham gia ngày:
    28/2/20
    Bài viết:
    530
    Đã được cảm ơn:
    290
    Giới tính:
    Nam
    Tất cả phim mình làm đều lưu trong HDD nên mình không cần phải giữ audio-sync làm gì cả.
     
  6. Zhao Lusi

    Zhao Lusi Well-Known Member

    Tham gia ngày:
    10/11/21
    Bài viết:
    1,359
    Đã được cảm ơn:
    3,776
    Giới tính:
    Nam
    hihi, mình ngược người khác chỗ đó dù có lưu thì vì chơi tor nên k mix sub, audio thì mới làm nên chưa nghĩ ra phương án để k mix
     
  7. lostoneakai

    lostoneakai Well-Known Member

    Tham gia ngày:
    28/2/20
    Bài viết:
    530
    Đã được cảm ơn:
    290
    Giới tính:
    Nam
    Tập 15/20
     
  8. lostoneakai

    lostoneakai Well-Known Member

    Tham gia ngày:
    28/2/20
    Bài viết:
    530
    Đã được cảm ơn:
    290
    Giới tính:
    Nam
    Tình hình là đã làm xong rồi nhưng cloud hết chỗ chứa. Nản quá đi!
     
  9. lostoneakai

    lostoneakai Well-Known Member

    Tham gia ngày:
    28/2/20
    Bài viết:
    530
    Đã được cảm ơn:
    290
    Giới tính:
    Nam
    Tối nay UP Full 20/20
    HTML:
    https://www.fshare.vn/folder/HVOH51DGZA6S
    
     
    Chỉnh sửa cuối: 6/12/21

Chia sẻ trang này