[Fshare] [Võ Thuật] House of Flying Daggers 2004 ViE 1080p BluRay x264-EbP - Thập Diện Mai Phục

Thảo luận trong 'Phim có audio Việt' bắt đầu bởi tamquocgia94, 17/5/20.

  1. tamquocgia94

    tamquocgia94 Well-Known Member

    Tham gia ngày:
    30/10/17
    Bài viết:
    1,348
    Đã được cảm ơn:
    48,654
    Giới tính:
    Nam
    Nghề nghiệp:
    Osin tổng thống
    Nơi ở:
    Dubai
    [Võ Thuật] House of Flying Daggers 2004 ViE 1080p BluRay x264-EbP - Thập Diện Mai Phục
    (Lưu Đức Hoa, Chung Tử Di, Kaneshiro Takeshi, Song Dandan)
    Thuyết Minh + Sub Việt Mux Sẵn
    [​IMG]
    [​IMG]
    [​IMG]

    [​IMG]

    Mã:
    General
    Unique ID                   : 221326862290271687984878011632423839379 (0xA68200CEF9FA895B827E7A551A08A693)
    Complete name               : C:\Users\tamquocgia\Downloads\House.of.Flying.Daggers.2004.ViE.1080p.BluRay x264-EbP.mkv
    Format                      : Matroska
    Format version              : Version 4 / Version 2
    File size                   : 16.3 GiB
    Duration                    : 1h 59mn
    Overall bit rate            : 19.5 Mbps
    Encoded date                : UTC 2020-05-17 09:52:53
    
    
    Writing application         : mkvmerge v7.9.0 ('Birds') 32bit
    Writing library             : libebml v1.3.1 + libmatroska v1.4.2
    Video
    ID                          : 1
    Format                      : AVC
    Format/Info                 : Advanced Video Codec
    Format profile              : [email protected]
    Format settings, CABAC      : Yes
    Format settings, ReFrames   : 5 frames
    Codec ID                    : V_MPEG4/ISO/AVC
    Duration                    : 1h 59mn
    Bit rate                    : 18.0 Mbps
    Width                       : 1 920 pixels
    Height                      : 808 pixels
    Display aspect ratio        : 2.40:1
    Frame rate mode             : Constant
    Frame rate                  : 23.976 (24000/1001) fps
    Color space                 : YUV
    Chroma subsampling          : 4:2:0
    Bit depth                   : 8 bits
    Scan type                   : Progressive
    Bits/(Pixel*Frame)          : 0.484
    Stream size                 : 15.0 GiB (92%)
    Title                       : House Of Flying Daggers (2004)
    Writing library             : x264 core 115 r1995 c1e60b9
    Encoding settings           : cabac=1 / ref=5 / deblock=1:-3:-3 / analyse=0x3:0x113 / me=tesa / subme=10 / psy=1 / psy_rd=1.00:0.00 / mixed_ref=1 / me_range=16 / chroma_me=1 / trellis=2 / 8x8dct=1 / cqm=0 / deadzone=21,11 / fast_pskip=0 / chroma_qp_offset=-2 / threads=12 / sliced_threads=0 / nr=0 / decimate=0 / interlaced=0 / bluray_compat=0 / constrained_intra=0 / bframes=7 / b_pyramid=2 / b_adapt=2 / b_bias=0 / direct=3 / weightb=1 / open_gop=0 / weightp=2 / keyint=250 / keyint_min=23 / scenecut=40 / intra_refresh=0 / rc=2pass / mbtree=0 / bitrate=18000 / ratetol=1.0 / qcomp=0.75 / qpmin=0 / qpmax=69 / qpstep=4 / cplxblur=20.0 / qblur=0.5 / ip_ratio=1.40 / pb_ratio=1.30 / aq=1:0.60
    Language                    : Chinese
    Default                     : Yes
    Forced                      : No
    Audio #1
    ID                          : 2
    Format                      : AC-3
    Format/Info                 : Audio Coding 3
    Mode extension              : CM (complete main)
    Format settings, Endianness : Big
    Codec ID                    : A_AC3
    Duration                    : 1h 59mn
    Bit rate mode               : Constant
    Bit rate                    : 448 Kbps
    Channel(s)                  : 6 channels
    Channel positions           : Front: L C R, Side: L R, LFE
    Sampling rate               : 48.0 KHz
    Frame rate                  : 31.250 fps (1536 spf)
    Compression mode            : Lossy
    Stream size                 : 382 MiB (2%)
    Title                       : House.of.Flying.Daggers.2004.1080p.BluRay ViE by tamquocgia94.HDVN
    Language                    : Vietnamese
    Default                     : No
    Forced                      : No
    Audio #2
    ID                          : 3
    Format                      : AC-3
    Format/Info                 : Audio Coding 3
    Mode extension              : CM (complete main)
    Format settings, Endianness : Big
    Codec ID                    : A_AC3
    Duration                    : 1h 59mn
    Bit rate mode               : Constant
    Bit rate                    : 448 Kbps
    Channel(s)                  : 6 channels
    Channel positions           : Front: L C R, Side: L R, LFE
    Sampling rate               : 48.0 KHz
    Frame rate                  : 31.250 fps (1536 spf)
    Compression mode            : Lossy
    Stream size                 : 382 MiB (2%)
    Language                    : Vietnamese
    Default                     : No
    Forced                      : No
    Audio #3
    ID                          : 4
    Format                      : AC-3
    Format/Info                 : Audio Coding 3
    Mode extension              : CM (complete main)
    Format settings, Endianness : Big
    Codec ID                    : A_AC3
    Duration                    : 1h 59mn
    Bit rate mode               : Constant
    Bit rate                    : 640 Kbps
    Channel(s)                  : 6 channels
    Channel positions           : Front: L C R, Side: L R, LFE
    Sampling rate               : 48.0 KHz
    Frame rate                  : 31.250 fps (1536 spf)
    Compression mode            : Lossy
    Stream size                 : 546 MiB (3%)
    Title                       : AC3 5.1 @ 640 Kbps
    Language                    : Chinese
    Default                     : Yes
    Forced                      : No
    Text #1
    ID                          : 5
    Format                      : UTF-8
    Codec ID                    : S_TEXT/UTF8
    Codec ID/Info               : UTF-8 Plain Text
    Duration                    : 1h 53mn
    Bit rate                    : 27 bps
    Count of elements           : 645
    Stream size                 : 22.6 KiB (0%)
    Language                    : Vietnamese
    Default                     : Yes
    Forced                      : No
    Text #2
    ID                          : 6
    Format                      : UTF-8
    Codec ID                    : S_TEXT/UTF8
    Codec ID/Info               : UTF-8 Plain Text
    Duration                    : 1h 53mn
    Bit rate                    : 19 bps
    Count of elements           : 645
    Stream size                 : 15.9 KiB (0%)
    Language                    : English
    Default                     : No
    Forced                      : No
    Menu
    00:00:00.000                : en:00:00:00.000
    00:10:24.958                : en:00:10:24.958
    00:19:06.604                : en:00:19:06.604
    00:28:23.827                : en:00:28:23.827
    00:37:30.999                : en:00:37:30.999
    00:45:31.103                : en:00:45:31.103
    00:56:28.719                : en:00:56:28.719
    01:03:13.623                : en:01:03:13.623
    01:15:12.883                : en:01:15:12.883
    01:27:41.298                : en:01:27:41.298
    01:38:02.085                : en:01:38:02.085
    01:47:37.993                : en:01:47:37.993
    

    Link Tải Phim
    Nhấn nút Cảm ơn (dưới chân bài) để thấy link!
     
    Chỉnh sửa cuối: 20/5/20
    kikudo, hailechi, Toản95 and 114 others like this.
  2. Đang tải...


  3. Lê nhã

    Lê nhã Member

    Tham gia ngày:
    30/7/19
    Bài viết:
    40
    Đã được cảm ơn:
    46
    Có bản nào dưới 10gb ko bạn? Trên em share ko dc
     
    tuanPOI and tamquocgia94 like this.
  4. tamquocgia94

    tamquocgia94 Well-Known Member

    Tham gia ngày:
    30/10/17
    Bài viết:
    1,348
    Đã được cảm ơn:
    48,654
    Giới tính:
    Nam
    Nghề nghiệp:
    Osin tổng thống
    Nơi ở:
    Dubai
    Mình không có nha bác
     
    phamkimly1 cảm ơn bài này.
  5. Thien1984

    Thien1984 New Member

    Tham gia ngày:
    28/7/20
    Bài viết:
    2
    Đã được cảm ơn:
    0
    Giới tính:
    Nam
    bác ơi bác còn phim yêu đi đừng sợ(2017) k ạ :(
     
  6. ajsajac

    ajsajac New Member

    Tham gia ngày:
    1/7/11
    Bài viết:
    12
    Đã được cảm ơn:
    0
    Link die rồi bác ơi.
     

Chia sẻ trang này