[Fshare] [Võ Thuật] In The Line Of Duty 4 1989 1080p BluRay x264 AC3-FGT - Tiêu Diệt Nhân Chứng (USLT)

Thảo luận trong 'Phim có audio Việt' bắt đầu bởi tamquocgia94, 17/5/20.

  1. tamquocgia94

    tamquocgia94 Well-Known Member

    Tham gia ngày:
    30/10/17
    Bài viết:
    1,348
    Đã được cảm ơn:
    48,689
    Giới tính:
    Nam
    Nghề nghiệp:
    Osin tổng thống
    Nơi ở:
    Dubai
    [Võ Thuật] In The Line Of Duty 4 1989 1080p BluRay x264 AC3-FGT - Tiêu Diệt Nhân Chứng (USLT)
    (Chân Tử Đan, Dương Lệ Thanh, Viên Nhật Sơ, Michael Wong)
    Lồng Tiếng + Sub Việt Mux Sẵn
    [​IMG]
    [​IMG]
    [​IMG]

    [​IMG]

    Mã:
    Genarel
    Unique ID                   : 251201773004939159806001111069994461222 (0xBCFBB3A0BB982F88B2999A77D98F2826)
    Complete name               : C:\Users\tamquocgia\Downloads\In.The.Line.Of.Duty.4.1989.LT.1080p.BluRay.x264.DTS-FGT.mkv
    Format                      : Matroska
    Format version              : Version 4 / Version 2
    File size                   : 9.04 GiB
    Duration                    : 1h 34mn
    Overall bit rate            : 13.6 Mbps
    Movie name                  : In.The.Line.Of.Duty.4.1989.CHINESE.1080p.BluRay.x264.DTS-FGT
    
    
    Encoded date                : UTC 2020-05-17 03:46:48
    Writing application         : mkvmerge v7.9.0 ('Birds') 32bit
    Writing library             : libebml v1.3.1 + libmatroska v1.4.2
    Cover                       : Yes
    Attachments                 : small_cover.jpg / small_cover_land.jpg / cover.jpg / cover_land.jpg
    Video
    ID                          : 1
    Format                      : AVC
    Format/Info                 : Advanced Video Codec
    Format profile              : [email protected]
    Format settings, CABAC      : Yes
    Format settings, ReFrames   : 4 frames
    Codec ID                    : V_MPEG4/ISO/AVC
    Duration                    : 1h 34mn
    Bit rate                    : 11.5 Mbps
    Width                       : 1 918 pixels
    Height                      : 1 080 pixels
    Display aspect ratio        : 16:9
    Frame rate mode             : Constant
    Frame rate                  : 23.976 (24000/1001) fps
    Color space                 : YUV
    Chroma subsampling          : 4:2:0
    Bit depth                   : 8 bits
    Scan type                   : Progressive
    Bits/(Pixel*Frame)          : 0.232
    Stream size                 : 7.62 GiB (84%)
    Title                       : In.The.Line.Of.Duty.4.1989.CHINESE.1080p.BluRay.x264.DTS-FGT
    Writing library             : x264 core 148 r2795M aaa9aa8
    Encoding settings           : cabac=1 / ref=4 / deblock=1:-2:-2 / analyse=0x3:0x113 / me=umh / subme=9 / psy=1 / psy_rd=1.00:0.15 / mixed_ref=1 / me_range=16 / chroma_me=1 / trellis=2 / 8x8dct=1 / cqm=0 / deadzone=21,11 / fast_pskip=1 / chroma_qp_offset=-3 / threads=24 / lookahead_threads=3 / sliced_threads=0 / nr=0 / decimate=1 / interlaced=0 / bluray_compat=0 / constrained_intra=0 / bframes=3 / b_pyramid=2 / b_adapt=1 / b_bias=0 / direct=3 / weightb=1 / open_gop=0 / weightp=2 / keyint=250 / keyint_min=25 / scenecut=40 / intra_refresh=0 / rc_lookahead=50 / rc=2pass / mbtree=1 / bitrate=11500 / ratetol=1.0 / qcomp=0.60 / qpmin=0 / qpmax=69 / qpstep=4 / cplxblur=20.0 / qblur=0.5 / vbv_maxrate=31250 / vbv_bufsize=31250 / nal_hrd=none / filler=0 / ip_ratio=1.40 / aq=1:1.00
    Language                    : Chinese
    Default                     : Yes
    Forced                      : No
    Audio #1
    ID                          : 2
    Format                      : AC-3
    Format/Info                 : Audio Coding 3
    Mode extension              : CM (complete main)
    Format settings, Endianness : Big
    Codec ID                    : A_AC3
    Duration                    : 1h 34mn
    Bit rate mode               : Constant
    Bit rate                    : 640 Kbps
    Channel(s)                  : 6 channels
    Channel positions           : Front: L C R, Side: L R, LFE
    Sampling rate               : 48.0 KHz
    Frame rate                  : 31.250 fps (1536 spf)
    Compression mode            : Lossy
    Stream size                 : 433 MiB (5%)
    Title                       : In.The.Line.of.Duty.4 .1989.USLT.by.tamquocgia94.HDVN
    Language                    : Vietnamese
    Default                     : No
    Forced                      : No
    Audio #2
    ID                          : 3
    Format                      : DTS
    Format/Info                 : Digital Theater Systems
    Mode                        : 16
    Format settings, Endianness : Big
    Codec ID                    : A_DTS
    Duration                    : 1h 34mn
    Bit rate mode               : Constant
    Bit rate                    : 1 509 Kbps
    Channel(s)                  : 6 channels
    Channel positions           : Front: L C R, Side: L R, LFE
    Sampling rate               : 48.0 KHz
    Frame rate                  : 93.750 fps (512 spf)
    Bit depth                   : 16 bits
    Compression mode            : Lossy
    Stream size                 : 1 022 MiB (11%)
    Title                       : In.The.Line.Of.Duty.4.1989.CHINESE.1080p.BluRay.x264.DTS-FGT
    Language                    : Chinese
    Default                     : Yes
    Forced                      : No
    Text
    ID                          : 4
    Format                      : UTF-8
    Codec ID                    : S_TEXT/UTF8
    Codec ID/Info               : UTF-8 Plain Text
    Duration                    : 1h 29mn
    Bit rate                    : 29 bps
    Count of elements           : 754
    Stream size                 : 19.3 KiB (0%)
    Language                    : English
    Default                     : Yes
    Forced                      : No
    Menu
    00:00:00.000                : en:Chapter 01
    00:02:44.497                : en:Chapter 02
    00:06:04.030                : en:Chapter 03
    00:10:26.500                : en:Chapter 04
    00:16:48.173                : en:Chapter 05
    00:20:55.295                : en:Chapter 06
    00:25:13.053                : en:Chapter 07
    00:29:59.547                : en:Chapter 08
    00:34:25.521                : en:Chapter 09
    00:40:37.893                : en:Chapter 10
    00:47:20.587                : en:Chapter 11
    00:52:32.941                : en:Chapter 12
    00:55:41.129                : en:Chapter 13
    00:59:01.079                : en:Chapter 14
    01:02:38.212                : en:Chapter 15
    01:05:07.737                : en:Chapter 16
    01:10:01.363                : en:Chapter 17
    01:13:16.600                : en:Chapter 18
    01:20:52.180                : en:Chapter 19
    01:31:04.041                : en:Chapter 20

    Note: Big thank chia sẻ của bác hoaitrung

    Link Tải Phim

    Nhấn nút Cảm ơn (dưới chân bài) để thấy link!
     
    Chỉnh sửa cuối: 20/5/20
  2. Thành phố

    Thành phố New Member

    Tham gia ngày:
    22/3/21
    Bài viết:
    1
    Đã được cảm ơn:
    5
    Cảm ơn
     
  3. Jellkeen

    Jellkeen Well-Known Member

    Tham gia ngày:
    24/2/13
    Bài viết:
    3,049
    Đã được cảm ơn:
    4,831
    Giới tính:
    Nam
    Nghề nghiệp:
    Vô Định
    Nơi ở:
    Vô Gia Cư
    Link die rồi, reup giùm, cảm ơn.
     
  4. Tomocthu98

    Tomocthu98 Active Member

    Tham gia ngày:
    17/10/21
    Bài viết:
    29
    Đã được cảm ơn:
    117
    Giới tính:
    Nam
    Nghề nghiệp:
    Tự do
    Nơi ở:
    Hà Nội
    Nhờ bác chủ reup ạ
     

Chia sẻ trang này