[Fshare] [Võ Thuật] Last Hero In China 1993 Remastered LT 1080p Bluray x264-req - Hoàng Phi Hồng Ngoại Truyện

Thảo luận trong 'Phim có audio Việt' bắt đầu bởi tamquocgia94, 24/5/20.

  1. tamquocgia94

    tamquocgia94 Well-Known Member

    Tham gia ngày:
    30/10/17
    Bài viết:
    1,348
    Đã được cảm ơn:
    48,694
    Giới tính:
    Nam
    Nghề nghiệp:
    Osin tổng thống
    Nơi ở:
    Dubai
    Last Hero in China 1993 Remastered USLT 1080p Bluray x264-req - Hoàng Phi Hồng Ngoại Truyện (Thần Kê Đấu Ngô Công)
    (Lý Liên Kiệt, Trương Mẫn, Viên Vịnh Nghi
    Lồng Tiếng + Sub Việt Mux Sẵn
    [​IMG]
    [​IMG]

    Mã:
    General
    Unique ID                   : 233322312015333816132876430955761999159 (0xAF883E243C1C79A1A1A422F57EE99D37)
    Complete name               : C:\Users\tamquocgia\Downloads\Last.Hero.In.China.1993.Remastered.LT.1080p.Bluray.x264-req.mkv
    Format                      : Matroska
    Format version              : Version 4 / Version 2
    File size                   : 7.75 GiB
    Duration                    : 1h 50mn
    Overall bit rate            : 10.1 Mbps
    Encoded date                : UTC 2020-05-24 04:23:37
    Writing application         : mkvmerge v7.9.0 ('Birds') 32bit
    
    
    Writing library             : libebml v1.3.1 + libmatroska v1.4.2
    Video
    ID                          : 1
    Format                      : AVC
    Format/Info                 : Advanced Video Codec
    Format profile              : [email protected]
    Format settings, CABAC      : Yes
    Format settings, ReFrames   : 4 frames
    Codec ID                    : V_MPEG4/ISO/AVC
    Duration                    : 1h 50mn
    Bit rate                    : 9 306 Kbps
    Width                       : 1 920 pixels
    Height                      : 1 080 pixels
    Display aspect ratio        : 16:9
    Frame rate mode             : Constant
    Frame rate                  : 24.000 fps
    Color space                 : YUV
    Chroma subsampling          : 4:2:0
    Bit depth                   : 8 bits
    Scan type                   : Progressive
    Bits/(Pixel*Frame)          : 0.187
    Stream size                 : 7.16 GiB (92%)
    Writing library             : x264 core 148 r2721 72d53ab
    Encoding settings           : cabac=1 / ref=4 / deblock=1:0:0 / analyse=0x3:0x133 / me=umh / subme=7 / psy=1 / psy_rd=1.00:0.00 / mixed_ref=1 / me_range=16 / chroma_me=1 / trellis=1 / 8x8dct=1 / cqm=0 / deadzone=21,11 / fast_pskip=0 / chroma_qp_offset=-2 / threads=6 / lookahead_threads=1 / sliced_threads=0 / nr=0 / decimate=1 / interlaced=0 / bluray_compat=0 / constrained_intra=0 / bframes=3 / b_pyramid=2 / b_adapt=1 / b_bias=0 / direct=1 / weightb=1 / open_gop=0 / weightp=2 / keyint=250 / keyint_min=24 / scenecut=40 / intra_refresh=0 / rc_lookahead=40 / rc=2pass / mbtree=1 / bitrate=9306 / ratetol=1.0 / qcomp=0.60 / qpmin=0 / qpmax=69 / qpstep=4 / cplxblur=20.0 / qblur=0.5 / ip_ratio=1.40 / aq=1:1.00
    Language                    : English
    Default                     : Yes
    Forced                      : No
    Audio #1
    ID                          : 2
    Format                      : MPEG Audio
    Format version              : Version 1
    Format profile              : Layer 3
    Mode                        : Joint stereo
    Mode extension              : MS Stereo
    Codec ID                    : A_MPEG/L3
    Codec ID/Hint               : MP3
    Duration                    : 1h 50mn
    Bit rate mode               : Constant
    Bit rate                    : 128 Kbps
    Channel(s)                  : 2 channels
    Sampling rate               : 44.1 KHz
    Frame rate                  : 38.281 fps (1152 spf)
    Compression mode            : Lossy
    Stream size                 : 101 MiB (1%)
    Title                       : Lồng Tiếng - Mux by tamquocgia94.HDVN
    Writing library             : LAME3.99.5
    Language                    : Vietnamese
    Default                     : No
    Forced                      : No
    Audio #2
    ID                          : 3
    Format                      : AC-3
    Format/Info                 : Audio Coding 3
    Mode extension              : CM (complete main)
    Format settings, Endianness : Big
    Codec ID                    : A_AC3
    Duration                    : 1h 50mn
    Bit rate mode               : Constant
    Bit rate                    : 640 Kbps
    Channel(s)                  : 2 channels
    Channel positions           : Front: L R
    Sampling rate               : 48.0 KHz
    Frame rate                  : 31.250 fps (1536 spf)
    Compression mode            : Lossy
    Stream size                 : 504 MiB (6%)
    Language                    : Chinese
    Default                     : Yes
    Forced                      : No
    Text #1
    ID                          : 4
    Format                      : UTF-8
    Codec ID                    : S_TEXT/UTF8
    Codec ID/Info               : UTF-8 Plain Text
    Duration                    : 1h 47mn
    Bit rate                    : 60 bps
    Count of elements           : 1478
    Stream size                 : 47.5 KiB (0%)
    Language                    : Vietnamese
    Default                     : No
    Forced                      : No
    Text #2
    ID                          : 5
    Format                      : UTF-8
    Codec ID                    : S_TEXT/UTF8
    Codec ID/Info               : UTF-8 Plain Text
    Duration                    : 1h 47mn
    Bit rate                    : 52 bps
    Count of elements           : 1418
    Stream size                 : 41.2 KiB (0%)
    Language                    : English
    Default                     : Yes
    Forced                      : No
    Link Tải Phim
    Nhấn nút Cảm ơn (dưới chân bài) để thấy link!
     

Chia sẻ trang này