[Fshare] [Võ Thuật] The Forbidden Kingdom 2008 ViE 1080p BluRay AC3 x264-CHD - Vua Kungfu

Thảo luận trong 'Phim có audio Việt' bắt đầu bởi tamquocgia94, 24/5/20.

  1. tamquocgia94

    tamquocgia94 Well-Known Member

    Tham gia ngày:
    30/10/17
    Bài viết:
    1,348
    Đã được cảm ơn:
    48,694
    Giới tính:
    Nam
    Nghề nghiệp:
    Osin tổng thống
    Nơi ở:
    Dubai
    The Forbidden Kingdom 2008 ViE 1080p BluRay AC3 x264-CHD - Vua Kungfu
    (Thành Long, Lý Liên Kiệt, Michael Angarano, Lưu Diệp Phi, Lý Băng Băng)
    Thuyết Minh + Sub Việt Mux Sẵn
    [​IMG]
    [​IMG]

    Mã:
    General
    Unique ID                   : 229300523495316162097847277181417249199 (0xAC81ACA883C1899685124514E2CF59AF)
    Complete name               : C:\Users\tamquocgia\Downloads\The.Forbidden.Kingdom.2008.ViE.1080p.BluRay.AC3.x264-CHD.mkv
    Format                      : Matroska
    Format version              : Version 4 / Version 2
    File size                   : 10.3 GiB
    Duration                    : 1h 44mn
    Overall bit rate            : 14.1 Mbps
    Encoded date                : UTC 2020-05-24 07:18:23
    Writing application         : mkvmerge v7.9.0 ('Birds') 32bit
    
    
    Writing library             : libebml v1.3.1 + libmatroska v1.4.2
    Attachments                 : CronosPro-Bold.ttf / CronosPro-Semibold.ttf / CronosPro-SemiboldIt.ttf
    Video
    ID                          : 1
    Format                      : AVC
    Format/Info                 : Advanced Video Codec
    Format profile              : [email protected]
    Format settings, CABAC      : Yes
    Format settings, ReFrames   : 5 frames
    Codec ID                    : V_MPEG4/ISO/AVC
    Duration                    : 1h 44mn
    Bit rate                    : 11.8 Mbps
    Width                       : 1 920 pixels
    Height                      : 798 pixels
    Display aspect ratio        : 2.40:1
    Frame rate mode             : Constant
    Frame rate                  : 23.976 fps
    Color space                 : YUV
    Chroma subsampling          : 4:2:0
    Bit depth                   : 8 bits
    Scan type                   : Progressive
    Bits/(Pixel*Frame)          : 0.320
    Stream size                 : 8.56 GiB (83%)
    Title                       : The.Forbidden.Kingdom.2008
    Writing library             : x264 core 102 r1666 d058f37
    Encoding settings           : cabac=1 / ref=5 / deblock=1:-3:-3 / analyse=0x3:0x113 / me=umh / subme=9 / psy=1 / psy_rd=1.05:0.10 / mixed_ref=1 / me_range=32 / chroma_me=1 / trellis=2 / 8x8dct=1 / cqm=2 / deadzone=21,11 / fast_pskip=0 / chroma_qp_offset=-2 / threads=12 / sliced_threads=0 / nr=0 / decimate=1 / interlaced=0 / constrained_intra=0 / bframes=6 / b_pyramid=2 / b_adapt=2 / b_bias=0 / direct=3 / weightb=1 / open_gop=0 / weightp=2 / keyint=250 / keyint_min=25 / scenecut=40 / intra_refresh=0 / rc_lookahead=50 / rc=2pass / mbtree=1 / bitrate=11750 / ratetol=2.0 / qcomp=0.70 / qpmin=10 / qpmax=51 / qpstep=4 / cplxblur=20.0 / qblur=0.5 / vbv_maxrate=50000 / vbv_bufsize=50000 / ip_ratio=1.40 / aq=1:0.80 / nal_hrd=none
    Language                    : English
    Default                     : No
    Forced                      : No
    Audio #1
    ID                          : 2
    Format                      : AC-3
    Format/Info                 : Audio Coding 3
    Mode extension              : CM (complete main)
    Format settings, Endianness : Big
    Codec ID                    : A_AC3
    Duration                    : 1h 44mn
    Bit rate mode               : Constant
    Bit rate                    : 448 Kbps
    Channel(s)                  : 6 channels
    Channel positions           : Front: L C R, Side: L R, LFE
    Sampling rate               : 48.0 KHz
    Frame rate                  : 31.250 fps (1536 spf)
    Compression mode            : Lossy
    Stream size                 : 289 MiB (3%)
    Title                       : Thuyết Minh - Mux by tamquocgia94.HDVN
    Language                    : Vietnamese
    Default                     : No
    Forced                      : No
    Audio #2
    ID                          : 3
    Format                      : DTS
    Format/Info                 : Digital Theater Systems
    Mode                        : 16
    Format settings, Endianness : Big
    Codec ID                    : A_DTS
    Duration                    : 1h 44mn
    Bit rate mode               : Constant
    Bit rate                    : 1 509 Kbps
    Channel(s)                  : 6 channels
    Channel positions           : Front: L C R, Side: L R, LFE
    Sampling rate               : 48.0 KHz
    Frame rate                  : 93.750 fps (512 spf)
    Bit depth                   : 24 bits
    Compression mode            : Lossy
    Stream size                 : 1.10 GiB (11%)
    Title                       : DTS-HD MA CORE 1536K
    Language                    : English
    Default                     : Yes
    Forced                      : No
    Audio #3
    ID                          : 4
    Format                      : AC-3
    Format/Info                 : Audio Coding 3
    Mode extension              : CM (complete main)
    Format settings, Endianness : Big
    Codec ID                    : A_AC3
    Duration                    : 1h 44mn
    Bit rate mode               : Constant
    Bit rate                    : 448 Kbps
    Channel(s)                  : 6 channels
    Channel positions           : Front: L C R, Side: L R, LFE
    Sampling rate               : 48.0 KHz
    Frame rate                  : 31.250 fps (1536 spf)
    Compression mode            : Lossy
    Stream size                 : 334 MiB (3%)
    Title                       : DD5.1 448K
    Language                    : Chinese
    Default                     : No
    Forced                      : No
    Text
    ID                          : 5
    Format                      : UTF-8
    Codec ID                    : S_TEXT/UTF8
    Codec ID/Info               : UTF-8 Plain Text
    Duration                    : 1h 37mn
    Bit rate                    : 36 bps
    Count of elements           : 596
    Stream size                 : 26.3 KiB (0%)
    Language                    : Vietnamese
    Default                     : Yes
    Forced                      : No
    Link Tải Phim
    Nhấn nút Cảm ơn (dưới chân bài) để thấy link!
     
    Bò Then, nettraz, huthalo and 53 others like this.
  2. datthanh198

    datthanh198 New Member

    Tham gia ngày:
    22/5/11
    Bài viết:
    13
    Đã được cảm ơn:
    4
    Film hay, Cảm ơn bác.
     
    Chỉnh sửa cuối: 14/7/20

Chia sẻ trang này