[Fshare] [Võ Thuật] Tiger Cage Duology (1988-1990) BluRay 1080p AC3 x264-CHD - Đặc Cảnh Đồ Long 1-2 (USLT)

Thảo luận trong 'Phim có audio Việt' bắt đầu bởi tamquocgia94, 18/5/20.

  1. tamquocgia94

    tamquocgia94 Well-Known Member

    Tham gia ngày:
    30/10/17
    Bài viết:
    1,348
    Đã được cảm ơn:
    48,709
    Giới tính:
    Nam
    Nghề nghiệp:
    Osin tổng thống
    Nơi ở:
    Dubai
    [Võ Thuật] Tiger Cage Duology (1988-1990) BluRay 1080p AC3 x264-CHD - Đặc Cảnh Đồ Long 1-2 (USLT)
    (Chân Tử Đan, Nhậm Đạt Hoa, Ôn Bich Hà, Dương Lệ Thanh, Trịnh Du Linh)
    Lồng Tiếng + Sub Việt Mux Sẵn

    [​IMG]
    [​IMG]
    [​IMG]

    [​IMG]

    Mã:
    General
    Unique ID                   : 183461355393839198009649882173928339533 (0x8A055F2E39949D9AAD23B9537C1F784D)
    Complete name               : C:\Users\tamquocgia\Downloads\Tiger.Cage.1988.LT.1080p.BluRay.AC3.2Audio.x264-CHD.mkv
    Format                      : Matroska
    Format version              : Version 4 / Version 2
    File size                   : 8.26 GiB
    Duration                    : 1h 33mn
    Overall bit rate            : 12.7 Mbps
    Movie name                  : 特警屠龙.1988 by 游龙公子
    
    
    Encoded date                : UTC 2020-05-20 02:20:27
    Writing application         : mkvmerge v7.9.0 ('Birds') 32bit
    Writing library             : libebml v1.3.1 + libmatroska v1.4.2
    Video
    ID                          : 1
    Format                      : AVC
    Format/Info                 : Advanced Video Codec
    Format profile              : [email protected]
    Format settings, CABAC      : Yes
    Format settings, ReFrames   : 4 frames
    Codec ID                    : V_MPEG4/ISO/AVC
    Duration                    : 1h 33mn
    Bit rate                    : 10.9 Mbps
    Width                       : 1 920 pixels
    Height                      : 1 014 pixels
    Display aspect ratio        : 1.893
    Frame rate mode             : Constant
    Frame rate                  : 23.976 fps
    Color space                 : YUV
    Chroma subsampling          : 4:2:0
    Bit depth                   : 8 bits
    Scan type                   : Progressive
    Bits/(Pixel*Frame)          : 0.234
    Stream size                 : 7.09 GiB (86%)
    Title                       : Tiger.Cage.1988
    Writing library             : x264 core 116 r2037+593 ba36cdb
    Encoding settings           : cabac=1 / ref=4 / deblock=1:-3:-3 / analyse=0x3:0x113 / me=umh / subme=9 / psy=1 / fade_compensate=0.00 / psy_rd=1.05:0.10 / mixed_ref=1 / me_range=32 / chroma_me=1 / trellis=2 / 8x8dct=1 / cqm=1 / deadzone=21,11 / fast_pskip=0 / chroma_qp_offset=-2 / threads=12 / sliced_threads=0 / nr=0 / decimate=1 / interlaced=0 / bluray_compat=0 / constrained_intra=0 / fgo=0 / bframes=6 / b_pyramid=2 / b_adapt=2 / b_bias=0 / direct=3 / weightb=1 / open_gop=0 / weightp=2 / keyint=250 / keyint_min=23 / scenecut=40 / intra_refresh=0 / rc_lookahead=60 / rc=2pass / mbtree=1 / bitrate=10911 / ratetol=2.0 / qcomp=0.70 / qpmin=3 / qpmax=69 / qpstep=4 / cplxblur=20.0 / qblur=0.5 / vbv_maxrate=40000 / vbv_bufsize=30000 / nal_hrd=none / ip_ratio=1.40 / aq=1:1.00
    Language                    : Chinese
    Default                     : Yes
    Forced                      : Yes
    Audio #1
    ID                          : 2
    Format                      : AC-3
    Format/Info                 : Audio Coding 3
    Mode extension              : CM (complete main)
    Format settings, Endianness : Big
    Codec ID                    : A_AC3
    Duration                    : 1h 32mn
    Bit rate mode               : Constant
    Bit rate                    : 512 Kbps
    Channel(s)                  : 6 channels
    Channel positions           : Front: L C R, Side: L R, LFE
    Sampling rate               : 48.0 KHz
    Frame rate                  : 31.250 fps (1536 spf)
    Compression mode            : Lossy
    Stream size                 : 340 MiB (4%)
    Title                       : Mux by [email protected]
    Language                    : Vietnamese
    Default                     : No
    Forced                      : No
    Audio #2
    ID                          : 3
    Format                      : AC-3
    Format/Info                 : Audio Coding 3
    Mode extension              : CM (complete main)
    Format settings, Endianness : Big
    Codec ID                    : A_AC3
    Duration                    : 1h 32mn
    Bit rate mode               : Constant
    Bit rate                    : 640 Kbps
    Channel(s)                  : 6 channels
    Channel positions           : Front: L C R, Side: L R, LFE
    Sampling rate               : 48.0 KHz
    Frame rate                  : 31.250 fps (1536 spf)
    Compression mode            : Lossy
    Stream size                 : 425 MiB (5%)
    Title                       : Cantonese TrueHD core AC3 5.1 640Kbps
    Language                    : Chinese
    Default                     : Yes
    Forced                      : Yes
    Audio #3
    ID                          : 4
    Format                      : AC-3
    Format/Info                 : Audio Coding 3
    Mode extension              : CM (complete main)
    Format settings, Endianness : Big
    Codec ID                    : A_AC3
    Duration                    : 1h 32mn
    Bit rate mode               : Constant
    Bit rate                    : 640 Kbps
    Channel(s)                  : 6 channels
    Channel positions           : Front: L C R, Side: L R, LFE
    Sampling rate               : 48.0 KHz
    Frame rate                  : 31.250 fps (1536 spf)
    Compression mode            : Lossy
    Stream size                 : 425 MiB (5%)
    Title                       : Mandarin AC3 5.1 640Kbps
    Language                    : Chinese
    Default                     : No
    Forced                      : No
    Text
    ID                          : 5
    Format                      : UTF-8
    Codec ID                    : S_TEXT/UTF8
    Codec ID/Info               : UTF-8 Plain Text
    Duration                    : 1h 29mn
    Bit rate                    : 52 bps
    Count of elements           : 974
    Stream size                 : 34.8 KiB (0%)
    Language                    : Vietnamese
    Default                     : Yes
    Forced                      : No
    ----------------------------------------------------------
    General
    Unique ID                   : 225240532074046781018967242416892174678 (0xA973BFA063EBE4B486A8C8AF6FB46156)
    Complete name               : C:\Users\tamquocgia\Downloads\Tiger.Cage.2.1990.LT.BluRay.1080p.AC3.2Audio.x264-CHD.mkv
    Format                      : Matroska
    Format version              : Version 4 / Version 2
    File size                   : 9.05 GiB
    Duration                    : 1h 35mn
    Overall bit rate            : 13.5 Mbps
    Encoded date                : UTC 2020-05-18 07:26:42
    Writing application         : mkvmerge v7.9.0 ('Birds') 32bit
    Writing library             : libebml v1.3.1 + libmatroska v1.4.2
    Video
    ID                          : 1
    Format                      : AVC
    Format/Info                 : Advanced Video Codec
    Format profile              : [email protected]
    Format settings, CABAC      : Yes
    Format settings, ReFrames   : 4 frames
    Codec ID                    : V_MPEG4/ISO/AVC
    Duration                    : 1h 35mn
    Bit rate                    : 11.7 Mbps
    Width                       : 1 920 pixels
    Height                      : 1 022 pixels
    Display aspect ratio        : 1.85:1
    Frame rate mode             : Constant
    Frame rate                  : 23.976 fps
    Color space                 : YUV
    Chroma subsampling          : 4:2:0
    Bit depth                   : 8 bits
    Scan type                   : Progressive
    Bits/(Pixel*Frame)          : 0.250
    Stream size                 : 7.86 GiB (87%)
    Writing library             : x264 core 115 r1947+532 361db68
    Encoding settings           : cabac=1 / ref=4 / deblock=1:-3:-3 / analyse=0x3:0x113 / me=umh / subme=9 / psy=1 / fade_compensate=0.00 / psy_rd=1.05:0.10 / mixed_ref=1 / me_range=32 / chroma_me=1 / trellis=2 / 8x8dct=1 / cqm=2 / deadzone=21,11 / fast_pskip=0 / chroma_qp_offset=-2 / threads=12 / sliced_threads=0 / nr=0 / decimate=1 / interlaced=0 / bluray_compat=0 / constrained_intra=0 / fgo=0 / bframes=6 / b_pyramid=2 / b_adapt=2 / b_bias=0 / direct=3 / weightb=1 / open_gop=0 / weightp=2 / keyint=250 / keyint_min=23 / scenecut=40 / intra_refresh=0 / rc_lookahead=60 / rc=2pass / mbtree=1 / bitrate=11739 / ratetol=2.0 / qcomp=0.70 / qpmin=1 / qpmax=63 / qpstep=4 / cplxblur=20.0 / qblur=0.5 / vbv_maxrate=40000 / vbv_bufsize=30000 / nal_hrd=none / ip_ratio=1.40 / aq=1:0.90
    Language                    : Chinese
    Default                     : Yes
    Forced                      : Yes
    Audio #1
    ID                          : 2
    Format                      : AC-3
    Format/Info                 : Audio Coding 3
    Mode extension              : CM (complete main)
    Format settings, Endianness : Big
    Codec ID                    : A_AC3
    Duration                    : 1h 35mn
    Bit rate mode               : Constant
    Bit rate                    : 512 Kbps
    Channel(s)                  : 6 channels
    Channel positions           : Front: L C R, Side: L R, LFE
    Sampling rate               : 48.0 KHz
    Frame rate                  : 31.250 fps (1536 spf)
    Compression mode            : Lossy
    Stream size                 : 350 MiB (4%)
    Title                       : Mux by [email protected]
    Language                    : Vietnamese
    Default                     : No
    Forced                      : No
    Audio #2
    ID                          : 3
    Format                      : AC-3
    Format/Info                 : Audio Coding 3
    Mode extension              : CM (complete main)
    Format settings, Endianness : Big
    Codec ID                    : A_AC3
    Duration                    : 1h 35mn
    Bit rate mode               : Constant
    Bit rate                    : 640 Kbps
    Channel(s)                  : 6 channels
    Channel positions           : Front: L C R, Side: L R, LFE
    Sampling rate               : 48.0 KHz
    Frame rate                  : 31.250 fps (1536 spf)
    Compression mode            : Lossy
    Stream size                 : 438 MiB (5%)
    Title                       : Cantonese TrueHD core AC3 5.1 640Kbps
    Language                    : Chinese
    Default                     : Yes
    Forced                      : Yes
    Audio #3
    ID                          : 4
    Format                      : AC-3
    Format/Info                 : Audio Coding 3
    Mode extension              : CM (complete main)
    Format settings, Endianness : Big
    Codec ID                    : A_AC3
    Duration                    : 1h 35mn
    Bit rate mode               : Constant
    Bit rate                    : 640 Kbps
    Channel(s)                  : 6 channels
    Channel positions           : Front: L C R, Side: L R, LFE
    Sampling rate               : 48.0 KHz
    Frame rate                  : 31.250 fps (1536 spf)
    Compression mode            : Lossy
    Stream size                 : 438 MiB (5%)
    Title                       : Mandarin AC3 5.1 640Kbps
    Language                    : Chinese
    Default                     : No
    Forced                      : No
    Text
    ID                          : 5
    Format                      : UTF-8
    Codec ID                    : S_TEXT/UTF8
    Codec ID/Info               : UTF-8 Plain Text
    Duration                    : 1h 29mn
    Bit rate                    : 52 bps
    Count of elements           : 974
    Stream size                 : 34.8 KiB (0%)
    Language                    : Vietnamese
    Default                     : Yes
    Forced                      : No
    Link Tải Phim
    Nhấn nút Cảm ơn (dưới chân bài) để thấy link!
     
    Chỉnh sửa cuối: 20/5/20

Chia sẻ trang này