[MULTI] [Vui Nhộn | Hành Động | 1 Link] The SpongeBob Movie Sponge Out of Water 2015 CamRip XviD-FANTA

Thảo luận trong 'mHD, SD' bắt đầu bởi Nguyễn Quốc Trung, 27/2/15.

  1. Nguyễn Quốc Trung

    Nguyễn Quốc Trung Active Member

    Tham gia ngày:
    18/11/11
    Bài viết:
    126
    Đã được cảm ơn:
    52
    Nghề nghiệp:
    Sinh Viên
    Nơi ở:
    Việt Nam
    The SpongeBob Movie Sponge Out of Water 2015 CamRip XviD-FANTA
    SpongeBob - Anh Hùng Lên Cạn 2015

    [​IMG]​​

    Thật thú vị khi được thưởng thức một bộ phim kết hợp giữa hoạt hình 2D, 3D và cả những diễn viên người đóng, và đó chính xác là những gì chúng ta sẽ có với bộ phim SPONGEBOB: ANH HÙNG LÊN CẠN (tên gốc: THE SPONGEBOB MOVIE: SPONGE OUT OF WATER)

    Bộ phim được chuyển thể từ loạt phim hoàn hình dài tập được yêu thích nhất trên kênh thiếu nhi Nickelodeon, kể về chú bọt biển màu vàng Spongebob cùng những người bạn và cuộc sống dưới đáy đại dương. Nhưng lần này, âm mưu của một gã cướp biển đã buộc Spongebob cùng các đồng đội rời bỏ đáy biển để tiến lên thế giới loài người trên cạn, nhằm lấy lại một vật quan trọng. Hành trình phiêu lưu của những sinh vật biển bé nhỏ này giữa một khu du lịch đông đúc người trong kì nghỉ rồi sẽ dẫn tới đâu?

    Trailer đầu tiên về dự án điện ảnh rất hấp dẫn này vừa được ra mắt, với rất nhiều phân cảnh gây thích thú cho người xem. Nhất là kể từ lúc các nhân vật tiến lên bờ, kỹ xảo 3D được thực hiện gần như hoàn hảo, khi các nhân vật hoạt hình tương tác với các diễn viên giống như thật. Nổi tiếng là một tác phẩm hài hước, trong lần xuất hiện trên màn bạc này, yếu tố hành động cũng được chú trọng không kém, có thể thấy điều đó qua rất nhiều cảnh rượt đuổi và chiến đấu trong trailer.


    [​IMG]​​
    Video
    ID : 0
    Format : MPEG-4 Visual
    Format profile : Advanced [email protected]
    Format settings, BVOP : 2
    Format settings, QPel : No
    Format settings, GMC : No warppoints
    Format settings, Matrix : Default (H.263)
    Muxing mode : Packed bitstream
    Codec ID : XVID
    Codec ID/Hint : XviD
    Duration : 1h 23mn
    Bit rate : 1 891 Kbps
    Width : 640 pixels
    Height : 352 pixels
    Display aspect ratio : 16:9
    Frame rate : 23.976 fps
    Color space : YUV
    Chroma subsampling : 4:2:0
    Bit depth : 8 bits
    Scan type : Progressive
    Compression mode : Lossy
    Bits/(Pixel*Frame) : 0.350
    Stream size : 1.10 GiB (90%)
    Writing library : XviD 64

    Audio
    ID : 1
    Format : AC-3
    Format/Info : Audio Coding 3
    Mode extension : CM (complete main)
    Format settings, Endianness : Big
    Codec ID : 2000
    Duration : 1h 23mn
    Bit rate mode : Constant
    Bit rate : 192 Kbps
    Channel(s) : 2 channels
    Channel positions : Front: L R
    Sampling rate : 44.1 KHz
    Bit depth : 16 bits
    Compression mode : Lossy
    Stream size : 114 MiB (9%)
    Alignment : Split accross interleaves
    Interleave, duration : 42 ms (1.00 video frame)
    Interleave, preload duratio : 500 ms


     
  2. Đang tải...


Chia sẻ trang này