[Fshare] Vy Oanh - Đồng Xanh [Official MV 2K - Hàng Hiếm]

Thảo luận trong 'HD Video Clip' bắt đầu bởi liemvn2212, 12/9/17.

  1. liemvn2212

    liemvn2212 Well-Known Member

    Tham gia ngày:
    8/6/09
    Bài viết:
    933
    Đã được cảm ơn:
    40,964
    Giới tính:
    Nam
    Nghề nghiệp:
    IT Apprentice
    Nơi ở:
    Sài Gòn
    Vy Oanh - Đồng Xanh [Official MV 2K - Hàng Hiếm]

    [​IMG]

    Mã:
    General
    
    
    	

    Complete name : C:\Vy_Oanh_Dong_Xanh_2K_Best.mov

    Format : MPEG-4 Format profile : QuickTime Codec ID : qt 2005.03 (qt ) File size : 2.01 GiB Duration : 4 min 0 s Overall bit rate : 71.8 Mb/s Encoded date : UTC 2012-05-28 09:03:02 Tagged date : UTC 2012-05-28 09:19:16 Writing library : Apple QuickTime Media/UUID : 9E9BA6C5-EB65-4798-B6B2-A2BD7E227F01 Media/History/UUID : 46550FDA-48BB-496B-9D32-5859DA8B489B Video ID : 1 Format : AVC Format/Info : Advanced Video Codec Format profile : [email protected] Format settings, CABAC : No Format settings, RefFrames : 2 frames Format settings, GOP : M=2, N=60 Codec ID : avc1 Codec ID/Info : Advanced Video Coding Duration : 4 min 0 s Bit rate : 71.5 Mb/s Width : 2 048 pixels Height : 1 152 pixels Display aspect ratio : 16:9 Frame rate mode : Constant Frame rate : 25.000 FPS Color space : YUV Chroma subsampling : 4:2:0 Bit depth : 8 bits Scan type : Progressive Bits/(Pixel*Frame) : 1.212 Stream size : 2.00 GiB (100%) Language : English Encoded date : UTC 2012-05-28 09:18:41 Tagged date : UTC 2012-05-28 09:19:16 Color range : Limited Color primaries : BT.709 Transfer characteristics : BT.709 Matrix coefficients : BT.709 Audio ID : 2 Format : AAC Format/Info : Advanced Audio Codec Format profile : LC Codec ID : 40 Duration : 4 min 0 s Source duration : 4 min 0 s Bit rate mode : Constant Bit rate : 320 kb/s Channel(s) : 2 channels Channel positions : Front: L R Sampling rate : 48.0 kHz Frame rate : 46.875 FPS (1024 SPF) Compression mode : Lossy Stream size : 9.20 MiB (0%) Source stream size : 9.20 MiB (0%) Language : English Encoded date : UTC 2012-05-28 09:18:41 Tagged date : UTC 2012-05-28 09:19:16 Other ID : 3 Type : Time code Format : QuickTime TC Duration : 4 min 0 s Time code of first frame : 01:00:00:00 Time code, striped : Yes Language : English Encoded date : UTC 2012-05-28 09:19:16 Tagged date : UTC 2012-05-28 09:19:16
    Vy Oanh có lẽ là người đầu tiên “góp công” phủ xanh Vpop bằng một loạt các MV khoe cảnh sắc thiên nhiên Việt Nam tuyệt đẹp như Fly, Hương rừng, Đồng xanh. Trong đó, nổi bật nhất vẫn là MV Đồng xanh với những góc quay được “chăm chút” kỹ lưỡng và công phu.

    Hình ảnh đầu tiên thu hút người xem trong MV này chính là cánh đồng xanh mướt, thẳng cánh cò bay, xa ngút tầm mắt. Những cảnh quay ấn tượng này được thực hiện tại chân núi Chóp Chài, xã Bình Kiến, thành phố Tuy Hòa, tỉnh Phú Yên. Ý tưởng kịch bản của Đồng xanh đến từ việc đi xem bối cảnh cho MV Fly của Vy Oanh khi nữ ca sĩ tình cờ đi ngang qua một chiếc cầu, từ trên cao nhìn xuống, bên dưới có một gò đất xanh và cánh đồng vàng bất tận. Từ đó, cô và đạo diễn Bone Ho đã nghĩ ra ý tưởng sẽ kết hợp hình ảnh và âm nhạc mang đậm chất thiên nhiên Việt Nam.

    Với MV Đồng xanh, Vy Oanh không chỉ mang đến hình ảnh cánh đồng quê mênh mông, bát ngát của miền Trung nắng gió mà cô còn khoe được giọng hát mượt mà, thanh khiết trong ca khúc được nhạc sĩ Dương Khắc Linh “chắp bút”. MV thực sự để lại ấn tượng trong lòng công chúng yêu nhạc.

    [​IMG]


    Link Fshare:
    Nhấn nút Cảm ơn (dưới chân bài) để thấy link!
     
    Chỉnh sửa cuối: 27/3/18
  2. Đang tải...


  3. hunglinh8989

    hunglinh8989 New Member

    Tham gia ngày:
    28/12/09
    Bài viết:
    15
    Đã được cảm ơn:
    13
    tks thích bài đồng xanh này lắm :)
     
  4. Voluan

    Voluan New Member

    Tham gia ngày:
    29/10/17
    Bài viết:
    1
    Đã được cảm ơn:
    3
    Giới tính:
    Nam
    :)
     
    tuanhue74, liemvn2212 and xhtbd like this.
  5. thanhmaitqq

    thanhmaitqq Member

    Tham gia ngày:
    8/6/10
    Bài viết:
    36
    Đã được cảm ơn:
    5
    minh xin cam on ong chu but
     
    liemvn2212 cảm ơn bài này.
  6. thanhluyenvt

    thanhluyenvt New Member

    Tham gia ngày:
    4/11/15
    Bài viết:
    11
    Đã được cảm ơn:
    38
    thanks
     
  7. hhhai3316789

    hhhai3316789 New Member

    Tham gia ngày:
    23/4/18
    Bài viết:
    2
    Đã được cảm ơn:
    1
    thank
     
    liemvn2212 cảm ơn bài này.

Chia sẻ trang này